<?xml version="1.0" standalone="no"?>
<!DOCTYPE svg PUBLIC "-//W3C//DTD SVG 1.1//EN" "http://www.w3.org/Graphics/SVG/1.1/DTD/svg11.dtd">
<svg xmlns="http://www.w3.org/2000/svg">
<defs >
<font id="MarkaziText" horiz-adv-x="1032" ><font-face
    font-family="Markazi Text"
    units-per-em="2048"
    panose-1="0 0 0 0 0 0 0 0 0 0"
    ascent="1718"
    descent="-740"
    alphabetic="0" />
<glyph unicode=" " horiz-adv-x="300" />
<glyph unicode="!" horiz-adv-x="426" d="M154 340L87 950V989Q142 996 207 997T339 995V950L272 340H154ZM213 -15Q151 -15 115 19T78 111Q78 170 114 204T213 238Q275 238 311 204T348 111Q348 53 312 19T213 -15Z" />
<glyph unicode="&quot;" horiz-adv-x="628" d="M123 690L68 1108V1144Q159 1155 278 1149V1108L221 690H123ZM405 690L350 1108V1144Q441 1155 560 1149V1108L503 690H405Z" />
<glyph unicode="#" horiz-adv-x="1036" d="M551 0L708 986H842L685 0H551ZM58 222V344H938V222H58ZM194 0L351 986H485L328 0H194ZM98 642V764H978V642H98Z" />
<glyph unicode="$" horiz-adv-x="845" d="M389 -7Q199 -7 79 80Q56 237 67 347H167L280 105L198 167Q303 108 411 108Q490 108 532 140T575 232Q575 282 543 314T438 369L327 404Q68 485 68 693Q68 830 167 911T435 993Q509 993 581 976T712 929Q730 797 724 691H620L526
888L626 818Q514 877 412 877Q269 877 269 760Q269 708 303 674T415 617L527 583Q779 507 779 301Q779 158 673 76T389 -7ZM321 -166L411 1154H503L413 -166H321Z" />
<glyph unicode="%" horiz-adv-x="1340" d="M334 471Q211 471 139 543T66 737Q66 859 139 931T335 1003Q457 1003 529 932T602 738Q602 616 530 544T334 471ZM343 553Q430 553 430 721Q430 818 403 869T326 921Q238 921 238 753Q238 656 265 605T343 553ZM1006
-13Q883 -13 811 59T738 253Q738 375 811 447T1007 519Q1129 519 1201 448T1274 254Q1274 132 1202 60T1006 -13ZM1015 69Q1102 69 1102 237Q1102 334 1075 385T998 437Q910 437 910 269Q910 172 937 121T1015 69ZM281 -5L909 990Q982 1001 1065 995L437 0Q364
-11 281 -5Z" />
<glyph unicode="&amp;" horiz-adv-x="1063" d="M786 0L255 515Q136 630 136 757Q136 872 226 940T469 1008Q608 1008 691 950T774 794Q774 698 692 619T458 487L374 547Q546 623 546 767Q546 825 521 856T447 888Q364 888 364 787Q364 736 387 692T469 592L1013
62L911 112L1033 91L1026 0H786ZM392 -18Q232 -18 137 48T42 227Q42 329 122 410T352 542L436 482Q358 449 320 397T282 269Q282 190 322 148T438 106Q506 106 565 142T688 261L763 172Q690 72 603 27T392 -18ZM763 160L663 221L841 469L851 423L727 452L734 542H1051L1044
454Q1022 441 993 432T935 416L1008 464L763 160Z" />
<glyph unicode="&apos;" horiz-adv-x="346" d="M123 690L68 1108V1144Q159 1155 278 1149V1108L221 690H123Z" />
<glyph unicode="(" horiz-adv-x="479" d="M487 1220Q380 1083 332 921T284 531Q284 57 487 -201L419 -245Q313 -196 235 -87T115 175T72 509Q72 690 114 843T235 1105T419 1264L487 1220Z" />
<glyph unicode=")" horiz-adv-x="479" d="M-8 -201Q99 -64 147 98T195 488Q195 962 -8 1220L60 1264Q166 1215 244 1106T364 844T407 510Q407 329 365 176T244 -86T60 -245L-8 -201Z" />
<glyph unicode="*" horiz-adv-x="828" d="M434 439L423 474L382 787L445 805L575 518L583 491Q520 457 434 439ZM394 1145L405 1110L446 798L383 779L253 1068L245 1095Q306 1129 394 1145ZM730 633L694 641L403 762L418 826L732 794L760 788Q757 714 730 633ZM98
952L134 944L425 823L410 759L96 791L68 797Q71 870 98 952ZM711 986L687 960L435 768L387 813L571 1069L590 1091Q624 1069 655 1042T711 986ZM118 599L142 625L393 817L441 772L258 515L239 494Q168 538 118 599Z" />
<glyph unicode="+" horiz-adv-x="794" d="M68 428V558H726V428H68ZM462 156H332V830H462V156Z" />
<glyph unicode="," horiz-adv-x="392" d="M71 -258L16 -201Q60 -170 95 -135T149 -73Q168 -46 179 -15T195 53L230 14H66Q54 137 90 231Q138 246 187 246Q334 246 334 98Q334 0 263 -96T71 -258Z" />
<glyph unicode="-" horiz-adv-x="602" d="M68 381V543H534V381H68Z" />
<glyph unicode="." horiz-adv-x="392" d="M196 -16Q133 -16 96 19T58 116Q58 177 95 212T196 248Q259 248 296 213T334 116Q334 55 297 20T196 -16Z" />
<glyph unicode="/" horiz-adv-x="622" d="M14 -200L442 1225Q517 1236 608 1230L180 -195Q105 -206 14 -200Z" />
<glyph unicode="0" horiz-adv-x="950" d="M474 -18Q278 -18 162 120T46 492Q46 648 98 763T247 941T476 1004Q672 1004 788 866T904 494Q904 338 852 223T703 45T474 -18ZM490 108Q640 108 640 458Q640 660 594 769T460 878Q310 878 310 528Q310 326 356 217T490 108Z" />
<glyph unicode="1" horiz-adv-x="680" d="M244 15V891L480 986V15H244ZM273 796L68 821L64 898Q224 973 412 998H480V856L273 796ZM78 0L85 86Q128 96 179 105T281 121L244 25V182H480V25L448 114L640 88L633 0H78Z" />
<glyph unicode="2" horiz-adv-x="818" d="M18 0L27 106L188 275Q307 400 371 479T460 616T485 733Q485 807 453 843T355 880Q266 880 187 822L55 656Q53 718 59 790T77 907Q149 954 237 978T421 1003Q576 1003 658 937T741 745Q741 668 706 589T584 408T346 157L186
0H18ZM18 0L175 116H753L751 0H18ZM750 0L572 81L675 275H775Q781 145 750 0ZM55 656L77 875L298 905L167 656H55Z" />
<glyph unicode="3" horiz-adv-x="814" d="M385 -17Q181 -17 61 87Q48 136 43 201T39 338L169 175Q249 107 373 107Q512 107 512 266Q512 353 474 400T366 447H287L297 575L376 567Q565 567 666 495T768 287Q768 148 664 66T385 -17ZM280 88L75 132L39 338H149L280
88ZM71 664L95 852L314 913L183 664H71ZM351 476L297 575H361Q484 575 484 721Q484 798 452 839T360 880Q274 880 192 822L71 664Q69 735 74 800T93 915Q162 956 252 979T426 1003Q567 1003 650 936T734 753Q734 626 630 551T351 476Z" />
<glyph unicode="4" horiz-adv-x="861" d="M134 298L12 336L459 986H589L134 298ZM3 232L12 336L119 348H845L837 232H3ZM443 0V880L459 986H675V0H443ZM337 0L344 86Q400 109 481 123L443 25V182H675V25L640 116L785 88L778 0H337Z" />
<glyph unicode="5" horiz-adv-x="812" d="M381 -17Q181 -17 57 87Q44 136 39 199T35 332L159 177Q247 107 369 107Q514 107 514 271Q514 377 458 433T299 490Q270 490 225 486T137 475L162 597Q219 614 280 623T397 632Q568 632 669 545T770 310Q770 160 665 72T381
-17ZM274 88L79 118L35 332H146L274 88ZM137 475L72 522L100 986L226 980L198 503L137 475ZM118 824L100 986H729L716 824H118Z" />
<glyph unicode="6" horiz-adv-x="855" d="M435 -18Q248 -18 147 90T46 398Q46 585 134 726T385 943Q441 969 510 985T654 1004L709 888Q594 876 512 843Q298 757 298 404Q298 108 447 108Q508 108 540 154T573 287Q573 387 530 440T407 494Q314 494 224 419L205
482Q339 640 519 640Q659 640 742 556T825 330Q825 170 720 76T435 -18Z" />
<glyph unicode="7" horiz-adv-x="746" d="M98 0L99 24L562 986H742L734 868L354 0H98ZM9 681Q1 841 32 986L208 889L99 681H9ZM34 856L32 986H742L680 856H34Z" />
<glyph unicode="8" horiz-adv-x="877" d="M421 -18Q251 -18 151 49T50 228Q50 325 125 396T342 504L427 460Q284 394 284 256Q284 181 326 141T445 100Q517 100 556 135T595 235Q595 285 565 317T468 373L352 412Q84 502 84 711Q84 845 182 924T448 1004Q602 1004
693 939T785 761Q785 666 717 599T522 501L446 543Q557 599 557 730Q557 805 524 845T427 886Q310 886 310 763Q310 710 339 678T433 624L549 585Q827 493 827 282Q827 145 717 64T421 -18Z" />
<glyph unicode="9" horiz-adv-x="855" d="M420 1004Q607 1004 708 896T809 588Q809 401 721 260T470 43Q414 17 345 1T201 -18L146 98Q261 110 343 143Q557 229 557 582Q557 878 408 878Q347 878 315 832T282 699Q282 599 325 546T448 492Q541 492 631 567L650
504Q516 346 336 346Q196 346 113 430T30 656Q30 816 135 910T420 1004Z" />
<glyph unicode=":" horiz-adv-x="412" d="M206 -16Q143 -16 106 19T68 116Q68 177 105 212T206 248Q269 248 306 213T344 116Q344 55 307 20T206 -16ZM206 468Q143 468 106 503T68 600Q68 661 105 696T206 732Q269 732 306 697T344 600Q344 539 307 504T206 468Z" />
<glyph unicode=";" horiz-adv-x="412" d="M81 -258L26 -201Q70 -170 105 -135T159 -73Q178 -46 189 -15T205 53L240 14H76Q64 137 100 231Q148 246 197 246Q344 246 344 98Q344 0 273 -96T81 -258ZM206 468Q143 468 106 503T68 600Q68 661 105 696T206 732Q269
732 306 697T344 600Q344 539 307 504T206 468Z" />
<glyph unicode="&lt;" horiz-adv-x="794" d="M74 431Q70 462 70 494T76 555L684 842L743 727L181 465L74 431ZM684 143L74 431L182 522L744 260L684 143Z" />
<glyph unicode="=" horiz-adv-x="794" d="M68 582V712H726V582H68ZM68 274V404H726V274H68Z" />
<glyph unicode="&gt;" horiz-adv-x="794" d="M720 554Q724 523 724 491T718 430L110 143L51 258L613 520L720 554ZM110 842L720 554L612 463L50 725L110 842Z" />
<glyph unicode="?" horiz-adv-x="721" d="M255 340L237 506L275 531Q366 591 399 637T433 752Q433 884 319 884Q230 884 151 826L33 664Q31 735 36 800T55 915Q121 959 206 983T385 1007Q531 1007 610 948T689 778Q689 712 658 654T554 534T361 397L340 384L384
440L373 340H255ZM33 664L56 882L276 913L145 664H33ZM316 -15Q254 -15 218 19T181 111Q181 170 217 204T316 238Q378 238 414 204T451 111Q451 53 415 19T316 -15Z" />
<glyph unicode="@" horiz-adv-x="1495" d="M688 -283Q386 -283 224 -115T62 366Q62 605 155 780T418 1052T821 1148Q1116 1148 1274 992T1433 544Q1433 315 1336 193T1059 70Q863 70 848 216L826 205L860 680L952 728Q977 750 1005 764H1085L1073 666L1045 263Q1043
231 1053 219T1095 207Q1182 207 1229 287T1276 517Q1276 758 1153 887T801 1016Q623 1016 492 939T290 720T218 386Q218 127 348 -12T721 -151Q807 -151 905 -134T1098 -84L1090 -189Q1026 -232 917 -257T688 -283ZM663 60Q536 60 467 137T398 364Q398 554 507
667T800 780Q888 780 935 750T1001 651L953 602Q916 634 871 652T785 670Q708 670 667 600T625 400Q625 199 737 199Q789 199 813 212T866 267L910 216Q867 143 806 102T663 60Z" />
<glyph unicode="A" horiz-adv-x="1014" d="M629 996L946 89L888 114L1015 90L1008 0H590L597 92Q641 112 711 126L691 99L423 928L383 991Q436 996 499 997T629 996ZM520 990L226 89L203 117L331 90L324 0H6L13 88Q32 98 63 108T131 126L68 89L383 991L520 990ZM210
265L243 389H724L758 265H210Z" />
<glyph unicode="B" horiz-adv-x="974" d="M255 0L265 126H492Q674 126 674 280Q674 447 460 447H265V551H474Q936 551 936 301Q936 163 810 82T468 0H255ZM142 15V976H382V15H142ZM236 490L255 561H484Q622 561 622 714Q622 864 489 864H250V990H501Q684 990 782
927T880 746Q880 622 772 556T463 490H236ZM48 0L55 88Q103 109 180 127L142 25V182H382V25L347 119L480 90L473 0H48ZM476 990L469 902Q421 881 344 863L382 965V808H142V965L177 871L44 900L51 990H476Z" />
<glyph unicode="C" horiz-adv-x="975" d="M598 -17Q330 -17 186 110T42 474Q42 637 109 756T298 941T588 1007Q676 1007 760 989T896 940Q916 804 908 673H805L699 897L799 826Q692 881 571 881Q314 881 314 510Q314 109 615 109Q740 109 843 165L838 77L695 101L828
333H935Q937 195 901 51Q850 20 768 2T598 -17Z" />
<glyph unicode="D" horiz-adv-x="1064" d="M270 0V130H512Q629 130 691 224T754 494Q754 860 459 860H270V990H468Q737 990 881 866T1026 512Q1026 356 961 241T776 63T492 0H270ZM142 15V976H382V15H142ZM48 0L55 88Q103 109 180 127L142 25V182H382V25L347 119L480
90L473 0H48ZM476 990L469 902Q421 881 344 863L382 965V808H142V965L177 871L44 900L51 990H476Z" />
<glyph unicode="E" horiz-adv-x="930" d="M142 15V976H382V15H142ZM269 0V130H819L843 0H269ZM843 0L648 83L781 315H888Q890 247 879 165T843 0ZM253 440V576H705L695 440H253ZM211 860V990H832L813 860H211ZM745 693L645 903L832 990Q848 918 853 841T854 693H745ZM48
0L55 88Q103 109 180 127L142 25V182H382V25L347 119L480 90L473 0H48ZM476 990L469 902Q421 881 344 863L382 965V808H142V965L177 871L44 900L51 990H476Z" />
<glyph unicode="F" horiz-adv-x="846" d="M142 15V976H382V15H142ZM253 406V542H685L675 406H253ZM211 860V990H788L769 860H211ZM707 679L601 903L788 990Q804 920 809 839T810 679H707ZM48 0L55 88Q103 109 180 127L142 25V182H382V25L347 117L510 90L503 0H48ZM476
990L469 902Q421 881 344 863L382 965V808H142V965L177 871L44 900L51 990H476Z" />
<glyph unicode="G" horiz-adv-x="1029" d="M612 -17Q338 -17 190 110T42 473Q42 636 110 756T305 941T602 1007Q694 1007 776 989T908 940Q918 871 921 805T920 685H814L713 897L814 826Q703 881 584 881Q310 881 310 513Q310 119 630 119Q759 119 876 173L947
51Q887 18 801 1T612 -17ZM709 41V397H947V51L709 41ZM709 297V437L739 371L571 397L578 487H1001L993 389Q962 372 909 360L947 437V297H709Z" />
<glyph unicode="H" horiz-adv-x="1120" d="M738 15V976H978V15H738ZM142 15V976H382V15H142ZM258 435V563H855V435H258ZM48 0L55 88Q103 109 180 127L142 25V182H382V25L347 119L480 90L473 0H48ZM644 0L651 88Q699 109 776 127L738 25V182H978V25L943 119L1076
90L1069 0H644ZM1072 990L1065 902Q1017 881 940 863L978 965V808H738V965L773 871L640 900L647 990H1072ZM476 990L469 902Q421 881 344 863L382 965V808H142V965L177 871L44 900L51 990H476Z" />
<glyph unicode="I" horiz-adv-x="528" d="M144 15V976H384V15H144ZM50 0L57 88Q105 109 182 127L144 25V182H384V25L349 119L482 90L475 0H50ZM478 990L471 902Q423 881 346 863L384 965V808H144V965L179 871L46 900L53 990H478Z" />
<glyph unicode="J" horiz-adv-x="722" d="M273 -16Q146 -16 52 20Q27 148 36 281H146L239 87L144 137Q211 112 259 112Q368 112 368 256L608 230Q608 112 521 48T273 -16ZM608 230L368 256V976H608V230ZM692 990L685 902Q648 883 570 862L608 965V808H368V965L403
873L236 900L243 990H692Z" />
<glyph unicode="K" horiz-adv-x="1018" d="M736 0L410 451V526L763 914L756 873L616 900L623 990H1002L995 902Q976 892 945 882T877 864L956 908L561 484L621 561L980 89L890 119L1024 94L1017 0H736ZM142 15V974H382V15H142ZM269 422V552H531V422H269ZM48 0L55
88Q103 109 180 127L142 25V182H382V25L347 119L480 90L473 0H48ZM476 990L469 902Q421 881 344 863L382 965V808H142V965L177 871L44 900L51 990H476Z" />
<glyph unicode="L" horiz-adv-x="889" d="M142 15V976H382V15H142ZM268 0V130H773L810 0H268ZM810 0L609 83L763 355H857Q857 164 810 0ZM516 990L509 902Q480 893 438 884T344 866L382 965V808H142V965L177 871L44 900L51 990H516ZM48 0L55 88Q103 109 180 127L142
25V182H382V25L347 119L480 90L473 0H48Z" />
<glyph unicode="M" horiz-adv-x="1416" d="M574 50L228 990H474L778 138L760 54Q715 50 667 49T574 50ZM34 0L41 88Q86 110 160 127L117 36L176 944L208 871L68 900L75 990H329L277 38L246 118L389 90L382 0H34ZM760 54L625 72L938 990H1105L760 54ZM949 0L956
88Q983 98 1018 108T1091 126L1057 43L1006 990H1337L1330 902Q1275 879 1197 864L1235 935L1294 46L1256 119L1382 90L1375 0H949Z" />
<glyph unicode="N" horiz-adv-x="1092" d="M822 -6L154 808L296 990L964 174L974 -1Q910 -11 822 -6ZM144 15V976L304 917V15H144ZM292 818L177 853L44 900L51 990H296L292 818ZM974 -1L814 84V976H974V-1ZM50 0L57 88Q105 109 182 127L144 25V182H304V25L269
118L416 90L409 0H50ZM1062 990L1055 902Q1004 878 936 863L974 965V808H814V965L849 871L716 900L723 990H1062Z" />
<glyph unicode="O" horiz-adv-x="1098" d="M548 -18Q394 -18 280 45T104 223T42 494Q42 651 104 766T280 945T549 1008Q704 1008 818 945T994 767T1056 496Q1056 339 994 224T818 45T548 -18ZM573 110Q784 110 784 456Q784 660 717 770T525 880Q314 880 314 534Q314
330 381 220T573 110Z" />
<glyph unicode="P" horiz-adv-x="925" d="M463 320Q363 320 249 332L264 456Q376 444 481 444Q637 444 637 654Q637 860 489 860H249V990H498Q693 990 798 909T903 676Q903 512 784 416T463 320ZM142 15V976H382V15H142ZM48 0L55 88Q103 109 180 127L142 25V182H382V25L347
117L510 90L503 0H48ZM476 990L469 902Q421 881 344 863L382 965V808H142V965L177 871L44 900L51 990H476Z" />
<glyph unicode="Q" horiz-adv-x="1098" d="M958 -294Q777 -294 648 -210T457 31L699 115Q790 -148 1044 -148Q1092 -148 1145 -140T1246 -115L1237 -233Q1191 -261 1116 -277T958 -294ZM552 -18Q398 -18 284 45T108 223T46 494Q46 651 108 766T284 945T553 1008Q708
1008 822 945T998 767T1060 496Q1060 339 998 224T822 45T552 -18ZM577 110Q788 110 788 456Q788 660 721 770T529 880Q318 880 318 534Q318 330 385 220T577 110Z" />
<glyph unicode="R" horiz-adv-x="996" d="M718 0L411 406L650 473L954 89L864 119L998 94L991 0H718ZM443 368Q343 368 229 380L244 500Q356 488 461 488Q624 488 624 678Q624 860 469 860H249V990H478Q676 990 782 915T888 701Q888 579 808 501T576 399L513 372Q496
370 479 369T443 368ZM142 15V976H382V15H142ZM48 0L55 88Q103 109 180 127L142 25V182H382V25L349 119L472 90L465 0H48ZM476 990L469 902Q421 881 344 863L382 965V808H142V965L177 871L44 900L51 990H476Z" />
<glyph unicode="S" horiz-adv-x="833" d="M382 -16Q184 -16 60 74Q35 237 48 351H151L269 100L183 167Q291 106 405 106Q483 106 525 137T567 225Q567 273 534 304T427 359L311 395Q49 476 49 693Q49 836 152 921T429 1006Q588 1006 717 940Q737 804 729 693H622L524
897L628 823Q511 884 406 884Q265 884 265 773Q265 724 300 691T415 633L531 597Q787 517 787 306Q787 158 678 71T382 -16Z" />
<glyph unicode="T" horiz-adv-x="928" d="M344 15V976H584V15H344ZM23 665Q9 833 40 990L234 903L121 665H23ZM57 860L40 990H888L853 860H57ZM807 665L694 903L888 990Q919 833 905 665H807ZM234 0L241 88Q270 100 306 109T382 124L344 25V182H584V25L549 118L698
90L691 0H234Z" />
<glyph unicode="U" horiz-adv-x="1048" d="M526 -17Q339 -17 229 66T118 289L362 320Q362 234 413 188T559 141Q654 141 706 187T758 320L934 289Q934 149 824 66T526 -17ZM118 289V976H362V320L118 289ZM118 808V965L153 870L30 900L37 990H470L463 902Q444 895
408 886T324 865L362 965V808H118ZM934 289L758 320V976H934V289ZM758 808V965L793 872L646 900L653 990H1018L1011 902Q974 883 896 862L934 965V808H758Z" />
<glyph unicode="V" horiz-adv-x="986" d="M375 -6L68 901L126 876L-1 900L6 990H436L429 900Q389 882 303 866L325 891L581 62L613 -1Q566 -6 499 -7T375 -6ZM476 0L758 901L783 873L643 900L650 990H980L973 902Q954 892 923 882T855 864L918 901L613 -1L476 0Z" />
<glyph unicode="W" horiz-adv-x="1465" d="M329 -6L69 902L126 876L-1 900L6 990H432L425 900Q385 882 299 866L321 896L530 76L559 -1Q512 -6 449 -7T329 -6ZM559 -1L432 14L669 957L806 956L559 -1ZM908 -6L685 894L669 957Q719 962 777 963T891 963L1107 77L1138
-1Q1092 -6 1028 -7T908 -6ZM1138 -1L1009 15L1240 901L1267 873L1128 900L1135 990H1459L1452 902Q1433 892 1403 882T1334 864L1395 900L1138 -1Z" />
<glyph unicode="X" horiz-adv-x="1021" d="M546 0L553 90Q614 112 679 124L665 98L412 466L639 534L960 81L879 118L1011 90L1004 0H546ZM16 0L23 88Q78 115 141 125L62 87L418 525L589 520L250 87L244 118L375 90L368 0H16ZM398 460L77 909L158 872L26 900L33
990H489L482 900Q425 878 358 866L372 892L626 528L398 460ZM595 469L424 474L763 903L769 872L640 900L647 990H997L990 902Q935 875 872 865L951 903L595 469Z" />
<glyph unicode="Y" horiz-adv-x="946" d="M355 344L65 901L126 876L-1 900L6 990H434L427 900Q387 882 301 866L319 891L559 413L593 349L355 344ZM452 350L723 901L745 873L605 900L612 990H940L933 902Q914 892 883 882T815 864L882 901L593 349L452 350ZM354
15V414H594V15H354ZM244 0L251 88Q280 100 316 109T392 124L354 25V182H594V25L559 118L708 90L701 0H244Z" />
<glyph unicode="Z" horiz-adv-x="918" d="M24 0L31 108L660 990H877L870 882L241 0H24ZM24 0L185 120H850L846 0H24ZM59 655Q52 740 57 827T77 990L270 911L153 655H59ZM74 870L77 990H877L717 870H74ZM878 355Q882 275 874 183T847 0L656 62L784 355H878Z" />
<glyph unicode="[" horiz-adv-x="508" d="M94 -225V1244H296V-225H94ZM94 -225L114 -98L506 -137L499 -225H94ZM114 1117L94 1244H499L506 1156L114 1117Z" />
<glyph unicode="\" horiz-adv-x="622" d="M608 -200L180 1225Q105 1236 14 1230L442 -195Q517 -206 608 -200Z" />
<glyph unicode="]" horiz-adv-x="508" d="M414 1243V-226H212V1243H414ZM414 1243L394 1116L2 1155L9 1243H414ZM394 -99L414 -226H9L2 -138L394 -99Z" />
<glyph unicode="^" horiz-adv-x="794" d="M642 515L325 853L453 990L724 573L642 515ZM149 512L68 568L332 987Q387 996 453 990L443 840L149 512Z" />
<glyph unicode="_" horiz-adv-x="666" d="M4 -216V-68H662V-216H4Z" />
<glyph unicode="`" horiz-adv-x="800" d="M491 833L189 1081L184 1131Q272 1175 383 1178L574 881L491 833Z" />
<glyph unicode="a" horiz-adv-x="808" d="M460 108Q460 191 462 277T464 440V526Q464 668 340 668Q261 668 184 610L82 519Q79 622 94 706Q243 789 424 789Q694 789 694 565Q694 536 693 477T691 350T689 222T688 132L460 108ZM82 519L92 635L287 691L195 519H82ZM260
-15Q156 -15 94 43T32 200Q32 406 340 470L522 508L540 402L397 384Q330 376 300 345T269 250Q269 127 365 127Q433 127 537 202L555 146Q428 -15 260 -15ZM520 -5L472 139L688 190V61L652 127L770 92L763 8Q673 -7 520 -5Z" />
<glyph unicode="b" horiz-adv-x="880" d="M448 -18Q290 -18 211 76L243 181Q332 106 425 106Q508 106 553 175T598 375Q598 505 554 574T426 644Q344 644 251 569L232 632Q366 790 534 790Q679 790 764 688T850 411Q850 214 741 98T448 -18ZM88 0L96 144V1070L328
1030V76L250 58Q223 25 186 0H88ZM96 900V1025L129 950L-6 1013L0 1079Q107 1117 242 1122H328V950L96 900Z" />
<glyph unicode="c" horiz-adv-x="746" d="M442 -16Q246 -16 141 84T36 370Q36 563 145 676T438 790Q575 790 685 728Q696 679 700 624T700 513H590L498 685L575 618Q535 641 497 654T428 667Q363 667 328 606T292 428Q292 140 529 140Q625 140 724 177L714 49Q607
-16 442 -16Z" />
<glyph unicode="d" horiz-adv-x="898" d="M346 -18Q201 -18 116 84T30 361Q30 558 139 674T432 790Q590 790 669 696L637 591Q548 666 455 666Q372 666 327 597T282 397Q282 267 326 198T454 128Q536 128 629 203L648 140Q514 -18 346 -18ZM784 59L552 99V1017H784V59ZM552
900V1025L585 950L440 1013L446 1079Q564 1117 698 1122H784V950L552 900ZM616 -5L568 139L784 190V61L748 127L866 92L859 8Q769 -7 616 -5Z" />
<glyph unicode="e" horiz-adv-x="811" d="M455 -16Q253 -16 145 85T36 375Q36 566 143 678T433 790Q598 790 686 695T775 423Q775 408 774 385T771 348L533 396Q533 541 504 604T410 668Q286 668 286 451Q286 140 543 140Q643 140 752 181L742 53Q692 20 616 2T455
-16ZM143 348V450H755L771 348H143Z" />
<glyph unicode="f" horiz-adv-x="574" d="M134 6V732Q134 850 182 942T314 1087T506 1140Q566 1140 606 1124L592 956Q528 970 479 970Q414 970 388 937T361 822V710L365 690V6H134ZM25 646L32 736Q82 758 142 772H560L550 646H25ZM50 0L57 84Q85 98 113 107T171
123L134 25V182H365V25L329 112L511 86L504 0H50Z" />
<glyph unicode="g" horiz-adv-x="820" d="M377 245Q226 245 137 318T48 516Q48 641 137 715T378 789Q455 789 531 754T657 658T708 517Q708 392 618 319T377 245ZM387 354Q482 354 482 501Q482 680 367 680Q274 680 274 533Q274 447 303 401T387 354ZM792 644L543
656L378 789Q424 789 455 784T514 772T577 766Q602 766 666 769T805 780L792 644ZM362 -350Q204 -350 111 -296T17 -148Q17 -20 216 39L278 5Q206 -51 206 -116Q206 -174 254 -205T394 -236Q490 -236 547 -202T605 -109Q605 -56 538 -56H296Q204 -56 155 -16T106
100Q106 229 266 309L347 295Q273 239 273 182Q273 132 340 132H582Q697 132 758 86T820 -48Q820 -136 761 -204T599 -311T362 -350Z" />
<glyph unicode="h" horiz-adv-x="950" d="M124 6V1034L356 1005V6H124ZM598 6V506Q598 643 479 643Q386 643 280 559L262 619Q384 789 592 789Q707 789 768 732T830 567V6H598ZM40 0L47 84Q75 98 103 107T161 123L124 25V182H356V25L323 114L452 86L445 0H40ZM524
0L531 88Q552 98 579 107T635 122L598 25V182H830V25L796 115L918 86L911 0H524ZM124 900V1025L157 950L22 1013L28 1079Q135 1117 270 1122H356V950L124 900Z" />
<glyph unicode="i" horiz-adv-x="496" d="M138 6V701L370 720V6H138ZM138 515V643L178 575L40 651L46 719Q100 743 167 759T306 781H370V622L138 515ZM48 0L55 84Q80 96 110 105T176 123L138 25V182H370V25L335 115L464 86L457 0H48ZM239 866Q177 866 140 901T103
994Q103 1052 140 1087T239 1122Q301 1122 338 1087T375 994Q375 936 338 901T239 866Z" />
<glyph unicode="j" horiz-adv-x="447" d="M97 -348L25 -289L45 -265Q84 -218 101 -142T119 62V701L351 720V113Q351 -41 330 -119Q310 -191 253 -249T97 -348ZM119 515V643L159 575L21 651L27 719Q81 743 148 759T287 781H351V622L119 515ZM216 866Q154 866 117
901T80 994Q80 1052 117 1087T216 1122Q278 1122 315 1087T352 994Q352 936 315 901T216 866Z" />
<glyph unicode="k" horiz-adv-x="907" d="M124 6V1054H356V6H124ZM245 345V467H446V345H245ZM649 0L390 375V442L665 699L645 653L521 682L528 772H873L866 684Q844 670 816 661T758 645L844 694L541 420L587 470L872 85L783 119L905 90L898 0H649ZM40 0L47 84Q75
98 103 107T161 123L124 25V182H356V25L323 114L444 88L437 0H40ZM124 900V1025L157 950L22 1013L28 1079Q135 1117 270 1122H356V950L124 900Z" />
<glyph unicode="l" horiz-adv-x="506" d="M138 6V1034L370 1005V6H138ZM42 0L49 84Q74 95 105 104T175 123L138 25V182H370V25L336 115L470 86L463 0H42ZM138 900V1025L171 950L36 1013L42 1079Q149 1117 284 1122H370V950L138 900Z" />
<glyph unicode="m" horiz-adv-x="1416" d="M1064 6V506Q1064 643 949 643Q860 643 754 559L734 629Q860 789 1061 789Q1174 789 1235 732T1296 567V6H1064ZM50 0L57 84Q85 98 113 107T171 123L134 25V182H366V25L333 114L458 86L451 0H50ZM134 6V680L366 638V6H134ZM524
0L531 88Q552 98 579 107T635 122L598 25V182H830V25L796 115L914 86L907 0H524ZM598 6V506Q598 643 484 643Q396 643 290 559L270 629Q397 789 596 789Q708 789 769 732T830 567V6H598ZM134 515V643L174 575L36 651L42 719Q96 743 163 759T302 781L358 602L134
515ZM990 0L997 88Q1018 98 1045 107T1101 122L1064 25V182H1296V25L1262 115L1384 86L1377 0H990Z" />
<glyph unicode="n" horiz-adv-x="958" d="M606 6V506Q606 643 488 643Q396 643 290 559L270 629Q332 709 418 749T600 789Q716 789 777 732T838 567V6H606ZM134 6V680L366 638V6H134ZM50 0L57 84Q85 98 113 107T171 123L134 25V182H366V25L333 114L462 86L455
0H50ZM532 0L539 88Q560 98 587 107T643 122L606 25V182H838V25L804 115L926 86L919 0H532ZM134 515V643L174 575L36 651L42 719Q96 743 163 759T302 781L358 602L134 515Z" />
<glyph unicode="o" horiz-adv-x="882" d="M440 -18Q255 -18 146 91T36 384Q36 570 146 680T443 790Q628 790 737 681T846 387Q846 201 736 92T440 -18ZM456 106Q590 106 590 359Q590 507 548 586T426 666Q292 666 292 413Q292 265 334 186T456 106Z" />
<glyph unicode="p" horiz-adv-x="897" d="M465 -18Q307 -18 228 76L260 181Q349 106 442 106Q525 106 570 175T615 375Q615 505 571 574T443 644Q361 644 268 569L249 632Q383 790 551 790Q696 790 781 688T867 411Q867 214 759 98T465 -18ZM29 -320L36 -236Q64
-222 92 -213T150 -197L113 -295V-138H345V-295L312 -208L481 -234L474 -320H29ZM113 -309V672L345 631V-309H113ZM113 515V643L153 575L15 651L21 719Q75 743 142 759T281 781L337 602L113 515Z" />
<glyph unicode="q" horiz-adv-x="888" d="M346 -18Q201 -18 116 84T30 361Q30 558 139 674T432 790Q590 790 669 696L637 591Q548 666 455 666Q372 666 327 597T282 397Q282 267 326 198T454 128Q536 128 629 203L648 140Q514 -18 346 -18ZM428 -320L435 -236Q502
-214 589 -200L552 -295V-138H784V-295L751 -206L880 -234L873 -320H428ZM552 -311V696L630 714Q657 747 694 772H792L784 628V-311H552Z" />
<glyph unicode="r" horiz-adv-x="621" d="M134 6V646L366 595V6H134ZM50 0L57 84Q85 98 113 107T171 123L134 25V182H366V25L333 112L502 86L495 0H50ZM298 486L278 526Q334 662 398 722T554 782Q568 782 580 781T601 776L586 594Q560 598 534 600T491 603Q433
603 388 576T298 486ZM134 515V643L174 575L36 651L42 719Q96 743 163 759T302 781L358 602L134 515Z" />
<glyph unicode="s" horiz-adv-x="698" d="M323 -16Q164 -16 54 56Q44 103 40 158T39 269H145L237 97L174 149Q250 100 339 100Q450 100 450 176Q450 233 359 261L259 292Q48 357 48 531Q48 649 132 718T360 788Q490 788 599 735Q618 649 615 540H505L413 712L509
625Q423 672 344 672Q252 672 252 604Q252 546 350 516L450 485Q559 451 608 392T658 249Q658 128 568 56T323 -16Z" />
<glyph unicode="t" horiz-adv-x="576" d="M359 -12Q113 -12 113 213V701L122 772L182 964H345V243Q345 182 367 155T440 128Q485 128 555 145L547 29Q476 -12 359 -12ZM5 646L12 736Q62 758 122 772H550L540 646H5Z" />
<glyph unicode="u" horiz-adv-x="907" d="M344 -17Q89 -17 89 217V670L321 659V249Q321 184 344 156T418 127Q531 127 642 216L661 141Q527 -17 344 -17ZM89 515V643L129 598L10 665L17 741Q115 778 257 781H321V622L89 515ZM787 59L555 99V668L787 658V59ZM555
515V643L595 597L467 668L473 738Q523 757 588 768T723 781H787V622L555 515ZM619 -5L571 139L787 190V61L751 127L869 92L862 8Q772 -7 619 -5Z" />
<glyph unicode="v" horiz-adv-x="842" d="M537 -1L406 0L632 682L655 654L537 682L544 772H836L829 684Q806 670 778 661T721 645L784 681L537 -1ZM307 -6L58 681L128 654L-1 682L6 772H398L391 682Q369 672 342 663T285 647L307 672L505 62L537 -1Q494 -6 427
-7T307 -6Z" />
<glyph unicode="w" horiz-adv-x="1225" d="M273 -6L61 682L123 653L1 682L8 772H396L389 682Q370 672 341 663T283 647L305 677L462 76L495 -1Q474 -4 431 -6T342 -8T273 -6ZM376 14L568 743L699 742L495 -1L376 14ZM734 -6L581 576L568 743Q605 748 656 750T750
749L921 76L956 -1Q936 -4 892 -6T803 -8T734 -6ZM837 14L1017 681L1035 653L924 682L931 772H1217L1212 684Q1190 670 1162 661T1104 645L1165 680L956 -1L837 14Z" />
<glyph unicode="x" horiz-adv-x="853" d="M16 0L23 84Q46 98 74 107T131 123L52 85L344 414L503 409L224 85L211 114L329 86L322 0H16ZM428 0L435 86Q457 96 484 105T541 121L527 96L332 355L545 423L802 79L714 114L843 86L836 0H428ZM439 772L432 682Q410 672
383 663T326 647L342 676L537 417L324 349L67 693L155 654L26 682L33 772H439ZM829 772L822 684Q800 670 772 661T714 645L793 687L501 358L342 363L621 687L636 654L518 682L525 772H829Z" />
<glyph unicode="y" horiz-adv-x="848" d="M392 -358Q268 -344 181 -296L384 22L420 48L646 680L669 654L551 682L558 772H846L839 684Q820 670 792 661T735 645L798 679L392 -358ZM349 -89L56 681L126 654L-3 682L4 772H396L389 682Q367 672 340 663T283 647L305
672L509 62L485 -1L349 -89Z" />
<glyph unicode="z" horiz-adv-x="754" d="M18 0L26 96L510 772H719L711 676L227 0H18ZM18 0L157 106H658L695 0H18ZM98 666L67 772H719L580 666H98ZM45 511Q37 634 67 772L241 683L149 511H45ZM695 0L525 103L622 285H720Q726 150 695 0Z" />
<glyph unicode="{" horiz-adv-x="490" d="M422 -242Q282 -236 208 -170T133 14Q133 66 144 107T166 188T178 276Q178 349 143 390T34 456Q29 510 38 550Q108 578 143 618T178 723Q178 766 167 801T144 878T133 977Q133 1108 207 1181T422 1261L458 1193Q331 1149
331 1004Q331 954 341 918T363 843T374 745Q374 534 176 503V522Q374 491 374 298Q374 244 363 206T342 129T331 33Q331 -130 458 -174L422 -242Z" />
<glyph unicode="|" horiz-adv-x="524" d="M194 -258V1248H330V-258H194Z" />
<glyph unicode="}" horiz-adv-x="490" d="M68 1261Q208 1255 282 1189T357 1005Q357 953 346 912T324 831T312 743Q312 670 347 629T456 563Q461 509 452 469Q382 441 347 401T312 296Q312 253 323 218T346 141T357 42Q357 -89 283 -162T68 -242L32 -174Q159 -130
159 15Q159 65 149 101T127 176T116 274Q116 485 314 516V497Q116 528 116 721Q116 775 127 813T148 890T159 986Q159 1149 32 1193L68 1261Z" />
<glyph unicode="~" horiz-adv-x="794" d="M107 386L36 432Q115 625 259 625Q319 625 367 602T458 554T545 530Q623 530 687 631L758 585Q679 392 535 392Q475 392 427 416T337 463T249 487Q171 487 107 386Z" />
<glyph unicode="&#xa0;" horiz-adv-x="300" />
<glyph unicode="&#xa1;" horiz-adv-x="416" d="M272 432L339 -178V-217Q284 -224 219 -225T87 -223V-178L154 432H272ZM213 787Q275 787 311 753T348 661Q348 602 312 568T213 534Q151 534 115 568T78 661Q78 719 114 753T213 787Z" />
<glyph unicode="&#xa2;" horiz-adv-x="756" d="M443 -6Q256 -6 156 89T56 360Q56 542 160 650T439 758Q570 758 677 699Q687 652 691 598T691 492H587L503 657L571 593Q491 640 429 640Q363 640 331 585T298 416Q298 272 352 208T527 144Q619 144 714 180L705
57Q602 -6 443 -6ZM361 -166L435 919H525L451 -166H361Z" />
<glyph unicode="&#xa3;" horiz-adv-x="988" d="M66 0L75 107Q135 160 159 216T183 358Q183 417 176 456T161 533T153 621Q153 797 265 900T567 1003Q640 1003 710 987T839 942Q848 884 851 820T851 695H751L649 911L746 832Q641 881 551 881Q397 881 397 666Q397
581 412 518T427 381Q427 260 357 175T112 0H66ZM88 0L168 116H841L877 0H88ZM877 0L683 80L832 342H922Q922 254 911 165T877 0ZM56 537H692L682 437H46L56 537Z" />
<glyph unicode="&#xa4;" horiz-adv-x="810" d="M408 191Q262 191 176 274T90 500Q90 642 176 725T408 809Q554 809 640 726T726 500Q726 358 640 275T408 191ZM699 115L550 278L631 350L780 187L699 115ZM422 341Q556 341 556 485Q556 564 512 611T394 659Q330
659 295 622T260 515Q260 436 304 389T422 341ZM185 650L36 813L117 885L266 722L185 650ZM699 885L780 813L631 650L550 722L699 885ZM185 350L266 278L117 115L36 187L185 350Z" />
<glyph unicode="&#xa5;" horiz-adv-x="952" d="M346 413L83 900L142 876L19 899L26 986H438L432 899Q413 890 382 882T310 866L328 890L559 442L608 418L346 413ZM255 0L262 85Q318 108 398 119L361 24V175H593V24L559 114L703 87L697 0H255ZM361 14V431H593V14H361ZM456
381L717 900L738 873L603 899L610 986H926L919 901Q901 890 872 881T805 864L870 900L608 418L456 381ZM148 407L155 499H806L799 407H148ZM148 225L155 317H806L799 225H148Z" />
<glyph unicode="&#xa6;" horiz-adv-x="524" d="M194 625V1248H330V625H194ZM194 365H330V-258H194V365Z" />
<glyph unicode="&#xa7;" horiz-adv-x="754" d="M351 -226Q278 -226 211 -210T93 -163Q72 -26 83 92H184L302 -159L202 -61Q278 -110 367 -110L425 -132Q496 -112 524 -74T552 38Q552 129 519 210T438 365T342 509T260 647T227 786Q227 833 247 862T317 917L412
1002Q543 1002 640 956Q648 907 651 850T650 731H545L447 935L561 839Q475 886 396 886Q361 886 361 848Q361 807 394 752T475 627T573 475T655 296T688 89Q688 -62 601 -144T351 -226ZM351 -226L367 -110Q391 -110 391 -76Q391 -33 358 23T277 149T179 301T97
480T64 685Q64 838 154 920T412 1002L392 886L327 908Q256 887 228 849T200 737Q200 647 233 567T314 412T410 268T492 129T525 -10Q525 -57 505 -86T435 -141L351 -226Z" />
<glyph unicode="&#xa8;" horiz-adv-x="800" d="M236 866Q180 866 147 898T114 983Q114 1037 147 1069T236 1101Q292 1101 325 1069T358 983Q358 930 325 898T236 866ZM564 866Q508 866 475 898T442 983Q442 1037 475 1069T564 1101Q620 1101 653 1069T686 983Q686
930 653 898T564 866Z" />
<glyph unicode="&#xa9;" horiz-adv-x="1555" d="M806 120Q631 120 538 209T444 465Q444 637 541 738T803 840Q924 840 1023 785Q1033 742 1036 692T1037 593H939L856 746L925 686Q890 707 856 718T794 730Q736 730 704 675T672 517Q672 260 884 260Q972 260 1058
293L1049 178Q953 120 806 120ZM775 -223Q557 -223 397 -136T150 112T62 490Q62 710 150 871T399 1120T780 1208Q998 1208 1158 1121T1405 873T1493 495Q1493 276 1405 115T1156 -135T775 -223ZM779 -91Q1046 -91 1191 60T1336 491Q1336 772 1190 924T775 1076Q508
1076 363 925T218 494Q218 214 364 62T779 -91Z" />
<glyph unicode="&#xaa;" horiz-adv-x="558" d="M312 587Q312 636 313 688T315 786V837Q315 922 235 922Q184 922 134 887L61 830Q59 896 70 951Q168 1004 293 1004Q476 1004 476 869Q476 846 475 791T473 681T472 601L312 587ZM61 830L68 900L201 933L140 830H61ZM181
513Q111 513 70 549T28 646Q28 772 234 812L356 836L369 765L275 755Q194 746 194 679Q194 608 255 608Q299 608 366 653L378 613Q294 513 181 513ZM355 518L321 609L472 642V559L446 606L524 585L519 527Q462 518 355 518Z" />
<glyph unicode="&#xab;" horiz-adv-x="852" d="M219 365L51 373Q50 395 51 415T57 451L376 766L458 703L219 365ZM376 53L51 373L219 454L458 116L376 53ZM559 365L391 373Q390 395 391 415T397 451L716 766L798 703L559 365ZM716 53L391 373L559 454L798 116L716 53Z" />
<glyph unicode="&#xac;" horiz-adv-x="794" d="M68 580V710H726V580H68ZM596 276V688H726V276H596Z" />
<glyph unicode="&#xad;" horiz-adv-x="608" d="M72 381V543H538V381H72Z" />
<glyph unicode="&#xae;" horiz-adv-x="1141" d="M568 283Q414 283 300 345T124 520T62 789Q62 945 125 1059T302 1237T573 1300Q728 1300 841 1238T1017 1062T1079 794Q1079 638 1017 523T839 346T568 283ZM572 391Q754 391 851 494T948 790Q948 984 850 1088T568
1192Q386 1192 289 1089T192 793Q192 600 290 496T572 391ZM685 539L527 747L657 769L810 585L761 606L828 592L826 539H685ZM550 729Q500 729 443 735L450 810Q507 804 559 804Q641 804 641 890Q641 974 563 974H453V1044H567Q671 1044 727 1007T783 901Q783 840
741 797T626 741L585 731Q577 730 568 730T550 729ZM390 552V1032H524V552H390ZM560 1044L558 994Q545 989 534 984T504 975L524 1025V942H390V1025L409 979L346 993L349 1044H560ZM348 539L351 589Q364 594 378 599T410 609L390 566V641H524V566L506 605L568 590L566
539H348Z" />
<glyph unicode="&#xaf;" horiz-adv-x="800" d="M134 1042H666V912H134V1042Z" />
<glyph unicode="&#xb0;" horiz-adv-x="622" d="M311 542Q190 542 118 612T46 800Q46 918 118 988T311 1058Q432 1058 504 988T576 800Q576 682 504 612T311 542ZM322 672Q430 672 430 788Q430 852 395 890T300 928Q192 928 192 812Q192 748 227 710T322 672Z" />
<glyph unicode="&#xb1;" horiz-adv-x="794" d="M68 568V698H726V568H68ZM68 89V217H726V89H68ZM332 306V960H462V306H332Z" />
<glyph unicode="&#xb2;" horiz-adv-x="536" d="M15 560L21 629L123 725Q196 794 235 837T289 913T305 981Q305 1051 234 1051Q179 1051 129 1019L38 922Q36 956 40 1003T52 1076Q144 1133 274 1133Q377 1133 430 1097T483 986Q483 939 461 892T385 784T233 640L140
560H15ZM15 560L122 634H491L489 560H15ZM489 560L369 614L435 723H505Q508 647 489 560ZM38 922L52 1058L199 1061L115 922H38Z" />
<glyph unicode="&#xb3;" horiz-adv-x="531" d="M251 550Q119 550 42 611Q33 641 30 681T28 765L117 671Q168 633 244 633Q320 633 320 715Q320 810 239 810H187L194 894L246 889Q368 889 433 847T499 727Q499 646 432 598T251 550ZM188 625L50 650L28 765H104L188
625ZM48 927L63 1033L209 1067L125 927H48ZM230 831L194 894H237Q303 894 303 970Q303 1051 236 1051Q184 1051 131 1019L48 927Q46 971 49 1011T62 1081Q106 1105 164 1119T277 1133Q368 1133 423 1095T478 989Q478 917 411 874T230 831Z" />
<glyph unicode="&#xb4;" horiz-adv-x="800" d="M319 833L236 881L437 1178Q548 1175 636 1131L631 1081L319 833Z" />
<glyph unicode="&#xb5;" horiz-adv-x="875" d="M759 146L537 136V763Q627 784 769 782Q764 696 762 558T759 249V146ZM567 157L759 186Q759 153 782 136T861 108L854 18Q796 -3 733 -3Q654 -3 617 32T567 157ZM71 763Q161 784 303 782L274 308Q274 172 279 12T293
-311Q203 -332 61 -330Q66 -244 68 -119T71 177V763ZM373 -13Q171 -13 171 217V741L303 782Q298 696 296 558T293 249Q293 190 317 164T396 137Q472 137 515 183T564 316L613 241Q602 119 540 53T373 -13Z" />
<glyph unicode="&#xb6;" horiz-adv-x="921" d="M356 390Q213 390 129 471T44 689Q44 827 130 908T361 990H521V402Q474 396 435 393T356 390ZM639 -210V976H795V-210H639ZM453 868V990H730V868H453ZM387 -210V990H543V-210H387ZM891 990L884 906Q858 895 827 886T758
867L795 965V808H663V990H891Z" />
<glyph unicode="&#xb7;" horiz-adv-x="393" d="M210 405Q147 405 110 440T72 537Q72 598 109 633T210 669Q273 669 310 634T348 537Q348 476 311 441T210 405Z" />
<glyph unicode="&#xb8;" horiz-adv-x="800" d="M271 -370L246 -286Q263 -285 277 -283T302 -279Q338 -272 359 -252T380 -204Q380 -172 347 -172Q330 -172 310 -178L273 -112L306 -99Q332 -88 358 -82T408 -75Q472 -75 510 -104T549 -184Q549 -249 486 -298T316
-365Q295 -368 271 -370ZM361 -123L273 -112L314 60H433L361 -123Z" />
<glyph unicode="&#xb9;" horiz-adv-x="445" d="M154 568V1071L319 1124V568H154ZM172 998L50 1016L47 1071Q96 1093 154 1108T271 1130H319V1051L172 998ZM56 560L61 619Q90 625 121 629T182 638L154 574V671H319V574L295 634L413 620L408 560H56Z" />
<glyph unicode="&#xba;" horiz-adv-x="592" d="M295 511Q173 511 101 577T29 757Q29 870 101 937T297 1004Q419 1004 491 937T563 758Q563 645 491 578T295 511ZM305 595Q384 595 384 741Q384 827 359 873T287 920Q208 920 208 774Q208 688 233 642T305 595Z" />
<glyph unicode="&#xbb;" horiz-adv-x="852" d="M633 454L801 446Q802 424 801 404T795 368L476 53L394 116L633 454ZM476 766L801 446L633 365L394 703L476 766ZM293 454L461 446Q462 424 461 404T455 368L136 53L54 116L293 454ZM136 766L461 446L293 365L54
703L136 766Z" />
<glyph unicode="&#xbc;" horiz-adv-x="1156" d="M137 492V943L292 990V492H137ZM154 873L45 891L42 942Q87 962 139 976T247 996H292V925L154 873ZM50 484L54 539Q81 544 109 548T164 556L137 497V585H292V497L269 552L376 540L371 484H50ZM164 -5L792 990Q865
1001 948 995L320 0Q247 -11 164 -5ZM738 159L658 178L912 506H994L738 159ZM652 114L658 178L729 184H1144L1139 114H652ZM902 0V453L912 506H1054V0H902ZM848 0L853 55Q868 61 888 65T929 73L902 13V100H1054V13L1029 69L1110 56L1106 0H848Z" />
<glyph unicode="&#xbd;" horiz-adv-x="1195" d="M137 492V943L292 990V492H137ZM154 873L45 891L42 942Q87 962 139 976T247 996H292V925L154 873ZM50 484L54 539Q81 544 109 548T164 556L137 497V585H292V497L269 552L376 540L371 484H50ZM164 -5L792 990Q865
1001 948 995L320 0Q247 -11 164 -5ZM720 0L725 63L817 150Q883 212 918 250T968 318T982 378Q982 438 920 438Q869 438 826 409L741 322Q739 353 743 396T754 463Q836 514 957 514Q1052 514 1100 482T1149 382Q1149 340 1130 297T1061 199T921 69L839 0H720ZM720
0L820 68H1156L1155 0H720ZM1154 0L1043 51L1103 147H1168Q1170 114 1166 76T1154 0ZM741 322L754 447H889L813 322H741Z" />
<glyph unicode="&#xbe;" horiz-adv-x="1225" d="M228 476Q104 476 37 531Q21 584 24 671L107 587Q152 553 221 553Q288 553 288 624Q288 707 217 707H169L176 785L224 780Q336 780 396 742T456 634Q456 561 394 519T228 476ZM171 546L44 568L24 671H95L171 546ZM42
811L55 905L190 936L114 811H42ZM209 728L176 785H215Q272 785 272 851Q272 922 214 922Q165 922 120 893L42 811Q40 852 43 888T55 951Q95 974 148 986T251 998Q336 998 386 964T437 869Q437 804 375 766T209 728ZM233 -5L861 990Q934 1001 1017 995L389 0Q316
-11 233 -5ZM807 159L727 178L981 506H1063L807 159ZM721 114L727 178L798 184H1213L1208 114H721ZM971 0V453L981 506H1123V0H971ZM917 0L922 55Q937 61 957 65T998 73L971 13V100H1123V13L1098 69L1179 56L1175 0H917Z" />
<glyph unicode="&#xbf;" horiz-adv-x="701" d="M456 432L474 266L436 241Q345 181 312 135T278 20Q278 -112 392 -112Q481 -112 560 -54L678 108Q680 37 675 -28T656 -143Q590 -187 505 -211T326 -235Q180 -235 101 -176T22 -6Q22 60 53 118T157 238T350 375L371
388L327 332L338 432H456ZM678 108L655 -110L435 -141L566 108H678ZM395 787Q457 787 493 753T530 661Q530 602 494 568T395 534Q333 534 297 568T260 661Q260 719 296 753T395 787Z" />
<glyph unicode="&#xc0;" horiz-adv-x="1014" d="M629 996L946 89L888 114L1015 90L1008 0H590L597 92Q641 112 711 126L691 99L423 928L383 991Q436 996 499 997T629 996ZM520 990L226 89L203 117L331 90L324 0H6L13 88Q32 98 63 108T131 126L68 89L383 991L520
990ZM210 265L243 389H724L758 265H210ZM659 1068L272 1198L267 1248Q327 1311 430 1352L721 1142L659 1068Z" />
<glyph unicode="&#xc1;" horiz-adv-x="1014" d="M629 996L946 89L888 114L1015 90L1008 0H590L597 92Q641 112 711 126L691 99L423 928L383 991Q436 996 499 997T629 996ZM520 990L226 89L203 117L331 90L324 0H6L13 88Q32 98 63 108T131 126L68 89L383 991L520
990ZM210 265L243 389H724L758 265H210ZM347 1068L285 1142L586 1352Q689 1311 749 1248L744 1198L347 1068Z" />
<glyph unicode="&#xc2;" horiz-adv-x="1014" d="M629 996L946 89L888 114L1015 90L1008 0H590L597 92Q641 112 711 126L691 99L423 928L383 991Q436 996 499 997T629 996ZM520 990L226 89L203 117L331 90L324 0H6L13 88Q32 98 63 108T131 126L68 89L383 991L520
990ZM210 265L243 389H724L758 265H210ZM585 1355L826 1127L762 1053L452 1223L585 1355ZM585 1355L551 1224L251 1046L186 1117L423 1350Q458 1355 501 1356T585 1355Z" />
<glyph unicode="&#xc3;" horiz-adv-x="1014" d="M629 996L946 89L888 114L1015 90L1008 0H590L597 92Q641 112 711 126L691 99L423 928L383 991Q436 996 499 997T629 996ZM520 990L226 89L203 117L331 90L324 0H6L13 88Q32 98 63 108T131 126L68 89L383 991L520
990ZM210 265L243 389H724L758 265H210ZM271 1067L200 1113Q284 1314 425 1314Q482 1314 514 1291T569 1243T627 1219Q684 1219 745 1320L816 1274Q732 1073 591 1073Q534 1073 502 1097T447 1144T389 1168Q332 1168 271 1067Z" />
<glyph unicode="&#xc4;" horiz-adv-x="1014" d="M629 996L946 89L888 114L1015 90L1008 0H590L597 92Q641 112 711 126L691 99L423 928L383 991Q436 996 499 997T629 996ZM520 990L226 89L203 117L331 90L324 0H6L13 88Q32 98 63 108T131 126L68 89L383 991L520
990ZM210 265L243 389H724L758 265H210ZM334 1075Q278 1075 245 1107T212 1192Q212 1246 245 1278T334 1310Q390 1310 423 1278T456 1192Q456 1139 423 1107T334 1075ZM682 1075Q626 1075 593 1107T560 1192Q560 1246 593 1278T682 1310Q738 1310 771 1278T804
1192Q804 1139 771 1107T682 1075Z" />
<glyph unicode="&#xc5;" horiz-adv-x="1014" d="M629 996L946 89L888 114L1015 90L1008 0H590L597 92Q641 112 711 126L691 99L423 928L383 991Q436 996 499 997T629 996ZM520 990L226 89L203 117L331 90L324 0H6L13 88Q32 98 63 108T131 126L68 89L383 991L520
990ZM210 265L243 389H724L758 265H210ZM508 1056Q415 1056 360 1107T305 1247Q305 1335 360 1386T508 1438Q601 1438 656 1387T711 1247Q711 1159 656 1108T508 1056ZM515 1164Q585 1164 585 1239Q585 1281 562 1305T501 1330Q431 1330 431 1255Q431 1213 454
1189T515 1164Z" />
<glyph unicode="&#xc6;" horiz-adv-x="1392" d="M-14 0L-7 88Q12 98 43 108T111 126L42 87L550 990H702L215 85L199 117L327 90L320 0H-14ZM542 0L549 88Q597 109 674 127L636 25V182H874V25L839 119L972 90L965 0H542ZM250 284L293 410H737V284H250ZM761 0V130H1281L1305
0H761ZM636 15V976H874V15H636ZM1305 0L1110 83L1243 315H1350Q1352 247 1341 165T1305 0ZM745 441V575H1167L1157 441H745ZM521 873L358 900L365 990H586L521 873ZM678 860L560 864L605 990H1294L1275 860H678ZM1207 693L1107 903L1294 990Q1310 918 1315 841T1316
693H1207Z" />
<glyph unicode="&#xc7;" horiz-adv-x="975" d="M598 -17Q330 -17 186 110T42 474Q42 637 109 756T298 941T588 1007Q676 1007 760 989T896 940Q916 804 908 673H805L699 897L799 826Q692 881 571 881Q314 881 314 510Q314 109 615 109Q740 109 843 165L838 77L695
101L828 333H935Q937 195 901 51Q850 20 768 2T598 -17ZM435 -370L409 -284Q426 -283 441 -281T467 -277Q503 -270 524 -250T546 -204Q546 -174 513 -174Q496 -174 476 -180L438 -112L472 -99Q498 -88 524 -82T574 -75Q639 -75 678 -104T717 -184Q717 -249 654
-298T482 -365Q462 -368 435 -370ZM438 -112L479 60H600L528 -123L438 -112Z" />
<glyph unicode="&#xc8;" horiz-adv-x="930" d="M142 15V976H382V15H142ZM269 0V130H819L843 0H269ZM843 0L648 83L781 315H888Q890 247 879 165T843 0ZM253 440V576H705L695 440H253ZM211 860V990H832L813 860H211ZM745 693L645 903L832 990Q848 918 853 841T854
693H745ZM48 0L55 88Q103 109 180 127L142 25V182H382V25L347 119L480 90L473 0H48ZM476 990L469 902Q421 881 344 863L382 965V808H142V965L177 871L44 900L51 990H476ZM623 1068L236 1198L231 1248Q291 1311 394 1352L685 1142L623 1068Z" />
<glyph unicode="&#xc9;" horiz-adv-x="930" d="M142 15V976H382V15H142ZM269 0V130H819L843 0H269ZM843 0L648 83L781 315H888Q890 247 879 165T843 0ZM253 440V576H705L695 440H253ZM211 860V990H832L813 860H211ZM745 693L645 903L832 990Q848 918 853 841T854
693H745ZM48 0L55 88Q103 109 180 127L142 25V182H382V25L347 119L480 90L473 0H48ZM476 990L469 902Q421 881 344 863L382 965V808H142V965L177 871L44 900L51 990H476ZM311 1068L249 1142L550 1352Q653 1311 713 1248L708 1198L311 1068Z" />
<glyph unicode="&#xca;" horiz-adv-x="930" d="M142 15V976H382V15H142ZM269 0V130H819L843 0H269ZM843 0L648 83L781 315H888Q890 247 879 165T843 0ZM253 440V576H705L695 440H253ZM211 860V990H832L813 860H211ZM745 693L645 903L832 990Q848 918 853 841T854
693H745ZM48 0L55 88Q103 109 180 127L142 25V182H382V25L347 119L480 90L473 0H48ZM476 990L469 902Q421 881 344 863L382 965V808H142V965L177 871L44 900L51 990H476ZM549 1355L790 1127L726 1053L416 1223L549 1355ZM549 1355L515 1224L215 1046L150 1117L387
1350Q422 1355 465 1356T549 1355Z" />
<glyph unicode="&#xcb;" horiz-adv-x="930" d="M142 15V976H382V15H142ZM269 0V130H819L843 0H269ZM843 0L648 83L781 315H888Q890 247 879 165T843 0ZM253 440V576H705L695 440H253ZM211 860V990H832L813 860H211ZM745 693L645 903L832 990Q848 918 853 841T854
693H745ZM48 0L55 88Q103 109 180 127L142 25V182H382V25L347 119L480 90L473 0H48ZM476 990L469 902Q421 881 344 863L382 965V808H142V965L177 871L44 900L51 990H476ZM298 1075Q242 1075 209 1107T176 1192Q176 1246 209 1278T298 1310Q354 1310 387 1278T420
1192Q420 1139 387 1107T298 1075ZM646 1075Q590 1075 557 1107T524 1192Q524 1246 557 1278T646 1310Q702 1310 735 1278T768 1192Q768 1139 735 1107T646 1075Z" />
<glyph unicode="&#xcc;" horiz-adv-x="528" d="M144 15V976H384V15H144ZM50 0L57 88Q105 109 182 127L144 25V182H384V25L349 119L482 90L475 0H50ZM478 990L471 902Q423 881 346 863L384 965V808H144V965L179 871L46 900L53 990H478ZM415 1068L28 1198L23 1248Q83
1311 186 1352L477 1142L415 1068Z" />
<glyph unicode="&#xcd;" horiz-adv-x="528" d="M144 15V976H384V15H144ZM50 0L57 88Q105 109 182 127L144 25V182H384V25L349 119L482 90L475 0H50ZM478 990L471 902Q423 881 346 863L384 965V808H144V965L179 871L46 900L53 990H478ZM103 1068L41 1142L342 1352Q445
1311 505 1248L500 1198L103 1068Z" />
<glyph unicode="&#xce;" horiz-adv-x="528" d="M144 15V976H384V15H144ZM50 0L57 88Q105 109 182 127L144 25V182H384V25L349 119L482 90L475 0H50ZM478 990L471 902Q423 881 346 863L384 965V808H144V965L179 871L46 900L53 990H478ZM341 1355L582 1127L518 1053L208
1223L341 1355ZM341 1355L307 1224L7 1046L-58 1117L179 1350Q214 1355 257 1356T341 1355Z" />
<glyph unicode="&#xcf;" horiz-adv-x="528" d="M144 15V976H384V15H144ZM50 0L57 88Q105 109 182 127L144 25V182H384V25L349 119L482 90L475 0H50ZM478 990L471 902Q423 881 346 863L384 965V808H144V965L179 871L46 900L53 990H478ZM110 1075Q54 1075 21 1107T-12
1192Q-12 1246 21 1278T110 1310Q166 1310 199 1278T232 1192Q232 1139 199 1107T110 1075ZM418 1075Q362 1075 329 1107T296 1192Q296 1246 329 1278T418 1310Q474 1310 507 1278T540 1192Q540 1139 507 1107T418 1075Z" />
<glyph unicode="&#xd0;" horiz-adv-x="1064" d="M270 0V130H512Q629 130 691 224T754 494Q754 860 459 860H270V990H468Q737 990 881 866T1026 512Q1026 356 961 241T776 63T492 0H270ZM142 15V976H382V15H142ZM48 0L55 88Q103 109 180 127L142 25V182H382V25L347
119L480 90L473 0H48ZM476 990L469 902Q421 881 344 863L382 965V808H142V965L177 871L44 900L51 990H476ZM40 557H574V457H40V557Z" />
<glyph unicode="&#xd1;" horiz-adv-x="1092" d="M822 -6L154 808L296 990L964 174L974 -1Q910 -11 822 -6ZM144 15V976L304 917V15H144ZM292 818L177 853L44 900L51 990H296L292 818ZM974 -1L814 84V976H974V-1ZM50 0L57 88Q105 109 182 127L144 25V182H304V25L269
118L416 90L409 0H50ZM1062 990L1055 902Q1004 878 936 863L974 965V808H814V965L849 871L716 900L723 990H1062ZM318 1067L247 1113Q331 1314 472 1314Q529 1314 561 1291T616 1243T674 1219Q731 1219 792 1320L863 1274Q779 1073 638 1073Q581 1073 549 1097T494
1144T436 1168Q379 1168 318 1067Z" />
<glyph unicode="&#xd2;" horiz-adv-x="1098" d="M548 -18Q394 -18 280 45T104 223T42 494Q42 651 104 766T280 945T549 1008Q704 1008 818 945T994 767T1056 496Q1056 339 994 224T818 45T548 -18ZM573 110Q784 110 784 456Q784 660 717 770T525 880Q314 880 314
534Q314 330 381 220T573 110ZM700 1068L313 1198L308 1248Q368 1311 471 1352L762 1142L700 1068Z" />
<glyph unicode="&#xd3;" horiz-adv-x="1098" d="M548 -18Q394 -18 280 45T104 223T42 494Q42 651 104 766T280 945T549 1008Q704 1008 818 945T994 767T1056 496Q1056 339 994 224T818 45T548 -18ZM573 110Q784 110 784 456Q784 660 717 770T525 880Q314 880 314
534Q314 330 381 220T573 110ZM388 1068L326 1142L627 1352Q730 1311 790 1248L785 1198L388 1068Z" />
<glyph unicode="&#xd4;" horiz-adv-x="1098" d="M548 -18Q394 -18 280 45T104 223T42 494Q42 651 104 766T280 945T549 1008Q704 1008 818 945T994 767T1056 496Q1056 339 994 224T818 45T548 -18ZM573 110Q784 110 784 456Q784 660 717 770T525 880Q314 880 314
534Q314 330 381 220T573 110ZM626 1355L867 1127L803 1053L493 1223L626 1355ZM626 1355L592 1224L292 1046L227 1117L464 1350Q499 1355 542 1356T626 1355Z" />
<glyph unicode="&#xd5;" horiz-adv-x="1098" d="M548 -18Q394 -18 280 45T104 223T42 494Q42 651 104 766T280 945T549 1008Q704 1008 818 945T994 767T1056 496Q1056 339 994 224T818 45T548 -18ZM573 110Q784 110 784 456Q784 660 717 770T525 880Q314 880 314
534Q314 330 381 220T573 110ZM312 1067L241 1113Q325 1314 466 1314Q523 1314 555 1291T610 1243T668 1219Q725 1219 786 1320L857 1274Q773 1073 632 1073Q575 1073 543 1097T488 1144T430 1168Q373 1168 312 1067Z" />
<glyph unicode="&#xd6;" horiz-adv-x="1098" d="M548 -18Q394 -18 280 45T104 223T42 494Q42 651 104 766T280 945T549 1008Q704 1008 818 945T994 767T1056 496Q1056 339 994 224T818 45T548 -18ZM573 110Q784 110 784 456Q784 660 717 770T525 880Q314 880 314
534Q314 330 381 220T573 110ZM375 1075Q319 1075 286 1107T253 1192Q253 1246 286 1278T375 1310Q431 1310 464 1278T497 1192Q497 1139 464 1107T375 1075ZM723 1075Q667 1075 634 1107T601 1192Q601 1246 634 1278T723 1310Q779 1310 812 1278T845 1192Q845
1139 812 1107T723 1075Z" />
<glyph unicode="&#xd7;" horiz-adv-x="794" d="M182 186L704 708L612 800L90 278L182 186ZM612 186L704 278L182 800L90 708L612 186Z" />
<glyph unicode="&#xd8;" horiz-adv-x="1098" d="M548 -18Q396 -18 282 45T105 224T42 494Q42 651 104 766T280 945T549 1008Q702 1008 816 945T993 766T1056 496Q1056 339 994 224T818 45T548 -18ZM573 110Q786 110 786 456Q786 662 719 771T525 880Q312 880 312
534Q312 328 379 219T573 110ZM181 -63L94 6L917 1053L1004 984L181 -63Z" />
<glyph unicode="&#xd9;" horiz-adv-x="1048" d="M526 -17Q339 -17 229 66T118 289L362 320Q362 234 413 188T559 141Q654 141 706 187T758 320L934 289Q934 149 824 66T526 -17ZM118 289V976H362V320L118 289ZM118 808V965L153 870L30 900L37 990H470L463 902Q444
895 408 886T324 865L362 965V808H118ZM934 289L758 320V976H934V289ZM758 808V965L793 872L646 900L653 990H1018L1011 902Q974 883 896 862L934 965V808H758ZM698 1068L311 1198L306 1248Q366 1311 469 1352L760 1142L698 1068Z" />
<glyph unicode="&#xda;" horiz-adv-x="1048" d="M526 -17Q339 -17 229 66T118 289L362 320Q362 234 413 188T559 141Q654 141 706 187T758 320L934 289Q934 149 824 66T526 -17ZM118 289V976H362V320L118 289ZM118 808V965L153 870L30 900L37 990H470L463 902Q444
895 408 886T324 865L362 965V808H118ZM934 289L758 320V976H934V289ZM758 808V965L793 872L646 900L653 990H1018L1011 902Q974 883 896 862L934 965V808H758ZM386 1068L324 1142L625 1352Q728 1311 788 1248L783 1198L386 1068Z" />
<glyph unicode="&#xdb;" horiz-adv-x="1048" d="M526 -17Q339 -17 229 66T118 289L362 320Q362 234 413 188T559 141Q654 141 706 187T758 320L934 289Q934 149 824 66T526 -17ZM118 289V976H362V320L118 289ZM118 808V965L153 870L30 900L37 990H470L463 902Q444
895 408 886T324 865L362 965V808H118ZM934 289L758 320V976H934V289ZM758 808V965L793 872L646 900L653 990H1018L1011 902Q974 883 896 862L934 965V808H758ZM624 1355L865 1127L801 1053L491 1223L624 1355ZM624 1355L590 1224L290 1046L225 1117L462 1350Q497
1355 540 1356T624 1355Z" />
<glyph unicode="&#xdc;" horiz-adv-x="1048" d="M526 -17Q339 -17 229 66T118 289L362 320Q362 234 413 188T559 141Q654 141 706 187T758 320L934 289Q934 149 824 66T526 -17ZM118 289V976H362V320L118 289ZM118 808V965L153 870L30 900L37 990H470L463 902Q444
895 408 886T324 865L362 965V808H118ZM934 289L758 320V976H934V289ZM758 808V965L793 872L646 900L653 990H1018L1011 902Q974 883 896 862L934 965V808H758ZM373 1075Q317 1075 284 1107T251 1192Q251 1246 284 1278T373 1310Q429 1310 462 1278T495 1192Q495
1139 462 1107T373 1075ZM721 1075Q665 1075 632 1107T599 1192Q599 1246 632 1278T721 1310Q777 1310 810 1278T843 1192Q843 1139 810 1107T721 1075Z" />
<glyph unicode="&#xdd;" horiz-adv-x="946" d="M355 344L65 901L126 876L-1 900L6 990H434L427 900Q387 882 301 866L319 891L559 413L593 349L355 344ZM452 350L723 901L745 873L605 900L612 990H940L933 902Q914 892 883 882T815 864L882 901L593 349L452 350ZM354
15V414H594V15H354ZM244 0L251 88Q280 100 316 109T392 124L354 25V182H594V25L559 118L708 90L701 0H244ZM334 1068L272 1142L573 1352Q676 1311 736 1248L731 1198L334 1068Z" />
<glyph unicode="&#xde;" horiz-adv-x="905" d="M453 183Q353 183 239 195L254 319Q366 307 471 307Q637 307 637 497Q637 683 479 683H239V813H488Q688 813 795 737T903 519Q903 365 781 274T453 183ZM48 0L55 88Q78 100 108 110T170 127L132 25V182H368V25L331
118L488 90L481 0H48ZM132 15V976H368V15H132ZM132 808V965L167 871L44 900L51 990H484L477 902Q417 881 327 865L368 965V788L132 808Z" />
<glyph unicode="&#xdf;" horiz-adv-x="981" d="M614 -16Q506 -16 423 19Q412 67 409 123T408 236H510L602 64L489 135Q559 100 630 100Q731 100 731 186Q731 236 703 267T634 323T552 377T483 452T455 569Q455 634 475 672T523 739T571 804T592 901Q592 1016 494
1016Q420 1016 381 958T341 792V6H109V702Q109 903 222 1021T527 1140Q660 1140 739 1083T818 929Q818 872 795 834T740 767T685 708T661 637Q661 594 689 567T759 516T842 461T912 381T941 251Q941 122 857 53T614 -16ZM25 0L32 84Q60 98 88 107T146 123L109 25V182H341V0H25Z"
/>
<glyph unicode="&#xe0;" horiz-adv-x="808" d="M460 108Q460 191 462 277T464 440V526Q464 668 340 668Q261 668 184 610L82 519Q79 622 94 706Q243 789 424 789Q694 789 694 565Q694 536 693 477T691 350T689 222T688 132L460 108ZM82 519L92 635L287 691L195
519H82ZM260 -15Q156 -15 94 43T32 200Q32 406 340 470L522 508L540 402L397 384Q330 376 300 345T269 250Q269 127 365 127Q433 127 537 202L555 146Q428 -15 260 -15ZM520 -5L472 139L688 190V61L652 127L770 92L763 8Q673 -7 520 -5ZM467 833L165 1081L160 1131Q248
1175 359 1178L550 881L467 833Z" />
<glyph unicode="&#xe1;" horiz-adv-x="808" d="M460 108Q460 191 462 277T464 440V526Q464 668 340 668Q261 668 184 610L82 519Q79 622 94 706Q243 789 424 789Q694 789 694 565Q694 536 693 477T691 350T689 222T688 132L460 108ZM82 519L92 635L287 691L195
519H82ZM260 -15Q156 -15 94 43T32 200Q32 406 340 470L522 508L540 402L397 384Q330 376 300 345T269 250Q269 127 365 127Q433 127 537 202L555 146Q428 -15 260 -15ZM520 -5L472 139L688 190V61L652 127L770 92L763 8Q673 -7 520 -5ZM295 833L212 881L413 1178Q524
1175 612 1131L607 1081L295 833Z" />
<glyph unicode="&#xe2;" horiz-adv-x="808" d="M460 108Q460 191 462 277T464 440V526Q464 668 340 668Q261 668 184 610L82 519Q79 622 94 706Q243 789 424 789Q694 789 694 565Q694 536 693 477T691 350T689 222T688 132L460 108ZM82 519L92 635L287 691L195
519H82ZM260 -15Q156 -15 94 43T32 200Q32 406 340 470L522 508L540 402L397 384Q330 376 300 345T269 250Q269 127 365 127Q433 127 537 202L555 146Q428 -15 260 -15ZM520 -5L472 139L688 190V61L652 127L770 92L763 8Q673 -7 520 -5ZM449 1164L648 898L574 837L298
1062L449 1164ZM449 1164L438 1062L173 831L100 888L295 1159Q330 1164 369 1165T449 1164Z" />
<glyph unicode="&#xe3;" horiz-adv-x="808" d="M460 108Q460 191 462 277T464 440V526Q464 668 340 668Q261 668 184 610L82 519Q79 622 94 706Q243 789 424 789Q694 789 694 565Q694 536 693 477T691 350T689 222T688 132L460 108ZM82 519L92 635L287 691L195
519H82ZM260 -15Q156 -15 94 43T32 200Q32 406 340 470L522 508L540 402L397 384Q330 376 300 345T269 250Q269 127 365 127Q433 127 537 202L555 146Q428 -15 260 -15ZM520 -5L472 139L688 190V61L652 127L770 92L763 8Q673 -7 520 -5ZM139 858L68 904Q152 1105
293 1105Q350 1105 382 1082T437 1034T495 1010Q552 1010 613 1111L684 1065Q600 864 459 864Q402 864 370 888T315 935T257 959Q200 959 139 858Z" />
<glyph unicode="&#xe4;" horiz-adv-x="808" d="M460 108Q460 191 462 277T464 440V526Q464 668 340 668Q261 668 184 610L82 519Q79 622 94 706Q243 789 424 789Q694 789 694 565Q694 536 693 477T691 350T689 222T688 132L460 108ZM82 519L92 635L287 691L195
519H82ZM260 -15Q156 -15 94 43T32 200Q32 406 340 470L522 508L540 402L397 384Q330 376 300 345T269 250Q269 127 365 127Q433 127 537 202L555 146Q428 -15 260 -15ZM520 -5L472 139L688 190V61L652 127L770 92L763 8Q673 -7 520 -5ZM212 866Q156 866 123 898T90
983Q90 1037 123 1069T212 1101Q268 1101 301 1069T334 983Q334 930 301 898T212 866ZM540 866Q484 866 451 898T418 983Q418 1037 451 1069T540 1101Q596 1101 629 1069T662 983Q662 930 629 898T540 866Z" />
<glyph unicode="&#xe5;" horiz-adv-x="808" d="M460 108Q460 191 462 277T464 440V526Q464 668 340 668Q261 668 184 610L82 519Q79 622 94 706Q243 789 424 789Q694 789 694 565Q694 536 693 477T691 350T689 222T688 132L460 108ZM82 519L92 635L287 691L195
519H82ZM260 -15Q156 -15 94 43T32 200Q32 406 340 470L522 508L540 402L397 384Q330 376 300 345T269 250Q269 127 365 127Q433 127 537 202L555 146Q428 -15 260 -15ZM520 -5L472 139L688 190V61L652 127L770 92L763 8Q673 -7 520 -5ZM376 842Q283 842 228 893T173
1033Q173 1121 228 1172T376 1224Q469 1224 524 1173T579 1033Q579 945 524 894T376 842ZM383 950Q453 950 453 1025Q453 1067 430 1091T369 1116Q299 1116 299 1041Q299 999 322 975T383 950Z" />
<glyph unicode="&#xe6;" horiz-adv-x="1189" d="M841 -16Q650 -16 548 78T446 349Q446 495 503 595L532 602Q569 693 643 741T819 790Q980 790 1066 695T1153 423Q1153 408 1153 392T1151 364L913 396Q913 540 885 604T795 668Q678 668 678 454Q678 140 929 140Q1021
140 1130 181L1120 53Q1070 20 995 2T841 -16ZM450 338V440V526Q450 668 332 668Q261 668 184 610L82 519Q79 622 94 706Q165 746 249 767T416 789Q528 789 583 734T639 565V362L450 338ZM82 519L92 635L285 691L193 519H82ZM252 -15Q151 -15 92 43T32 200Q32 307
106 372T320 458L506 485L522 383L388 375Q324 371 296 342T267 250Q267 126 357 126Q429 126 525 209L576 150Q428 -15 252 -15ZM577 360V460L1135 464L1151 364L577 360Z" />
<glyph unicode="&#xe7;" horiz-adv-x="746" d="M442 -16Q246 -16 141 84T36 370Q36 563 145 676T438 790Q575 790 685 728Q696 679 700 624T700 513H590L498 685L575 618Q535 641 497 654T428 667Q363 667 328 606T292 428Q292 140 529 140Q625 140 724 177L714
49Q607 -16 442 -16ZM291 -370L266 -286Q283 -285 297 -283T322 -279Q358 -272 379 -252T400 -204Q400 -172 367 -172Q350 -172 330 -178L293 -112L326 -99Q352 -88 378 -82T428 -75Q492 -75 530 -104T569 -184Q569 -249 506 -298T336 -365Q315 -368 291 -370ZM381
-123L293 -112L334 60H453L381 -123Z" />
<glyph unicode="&#xe8;" horiz-adv-x="811" d="M455 -16Q253 -16 145 85T36 375Q36 566 143 678T433 790Q598 790 686 695T775 423Q775 408 774 385T771 348L533 396Q533 541 504 604T410 668Q286 668 286 451Q286 140 543 140Q643 140 752 181L742 53Q692 20
616 2T455 -16ZM143 348V450H755L771 348H143ZM504 833L202 1081L197 1131Q285 1175 396 1178L587 881L504 833Z" />
<glyph unicode="&#xe9;" horiz-adv-x="811" d="M455 -16Q253 -16 145 85T36 375Q36 566 143 678T433 790Q598 790 686 695T775 423Q775 408 774 385T771 348L533 396Q533 541 504 604T410 668Q286 668 286 451Q286 140 543 140Q643 140 752 181L742 53Q692 20
616 2T455 -16ZM143 348V450H755L771 348H143ZM332 833L249 881L450 1178Q561 1175 649 1131L644 1081L332 833Z" />
<glyph unicode="&#xea;" horiz-adv-x="811" d="M455 -16Q253 -16 145 85T36 375Q36 566 143 678T433 790Q598 790 686 695T775 423Q775 408 774 385T771 348L533 396Q533 541 504 604T410 668Q286 668 286 451Q286 140 543 140Q643 140 752 181L742 53Q692 20
616 2T455 -16ZM143 348V450H755L771 348H143ZM486 1164L685 898L611 837L335 1062L486 1164ZM486 1164L475 1062L210 831L137 888L332 1159Q367 1164 406 1165T486 1164Z" />
<glyph unicode="&#xeb;" horiz-adv-x="811" d="M455 -16Q253 -16 145 85T36 375Q36 566 143 678T433 790Q598 790 686 695T775 423Q775 408 774 385T771 348L533 396Q533 541 504 604T410 668Q286 668 286 451Q286 140 543 140Q643 140 752 181L742 53Q692 20
616 2T455 -16ZM143 348V450H755L771 348H143ZM249 866Q193 866 160 898T127 983Q127 1037 160 1069T249 1101Q305 1101 338 1069T371 983Q371 930 338 898T249 866ZM577 866Q521 866 488 898T455 983Q455 1037 488 1069T577 1101Q633 1101 666 1069T699 983Q699
930 666 898T577 866Z" />
<glyph unicode="&#xec;" horiz-adv-x="496" d="M138 6V701L370 720V6H138ZM138 515V643L178 575L40 651L46 719Q100 743 167 759T306 781H370V622L138 515ZM48 0L55 84Q80 96 110 105T176 123L138 25V182H370V25L335 115L464 86L457 0H48ZM326 833L24 1081L19
1131Q107 1175 218 1178L409 881L326 833Z" />
<glyph unicode="&#xed;" horiz-adv-x="496" d="M138 6V701L370 720V6H138ZM138 515V643L178 575L40 651L46 719Q100 743 167 759T306 781H370V622L138 515ZM48 0L55 84Q80 96 110 105T176 123L138 25V182H370V25L335 115L464 86L457 0H48ZM154 833L71 881L272
1178Q383 1175 471 1131L466 1081L154 833Z" />
<glyph unicode="&#xee;" horiz-adv-x="496" d="M138 6V701L370 720V6H138ZM138 515V643L178 575L40 651L46 719Q100 743 167 759T306 781H370V622L138 515ZM48 0L55 84Q80 96 110 105T176 123L138 25V182H370V25L335 115L464 86L457 0H48ZM308 1164L507 898L433
837L157 1062L308 1164ZM308 1164L297 1062L32 831L-41 888L154 1159Q189 1164 228 1165T308 1164Z" />
<glyph unicode="&#xef;" horiz-adv-x="496" d="M138 6V701L370 720V6H138ZM138 515V643L178 575L40 651L46 719Q100 743 167 759T306 781H370V622L138 515ZM48 0L55 84Q80 96 110 105T176 123L138 25V182H370V25L335 115L464 86L457 0H48ZM91 866Q35 866 2 898T-31
983Q-31 1037 2 1069T91 1101Q147 1101 180 1069T213 983Q213 930 180 898T91 866ZM379 866Q323 866 290 898T257 983Q257 1037 290 1069T379 1101Q435 1101 468 1069T501 983Q501 930 468 898T379 866Z" />
<glyph unicode="&#xf0;" horiz-adv-x="892" d="M483 1059Q667 951 756 800T846 446Q846 222 741 102T440 -18Q255 -18 146 88T36 375Q36 555 139 660T419 766Q605 766 643 562L596 517Q534 646 426 646Q292 646 292 403Q292 260 334 183T456 106Q527 106 558 179T590
417Q590 462 588 505T579 583L601 611Q570 746 504 839T341 988Q304 1010 260 1026T168 1054L232 1154Q293 1142 360 1117T483 1059ZM208 798L166 885L421 1031L500 966L208 798ZM501 965L422 1030L630 1149L671 1062L501 965Z" />
<glyph unicode="&#xf1;" horiz-adv-x="958" d="M606 6V506Q606 643 488 643Q396 643 290 559L270 629Q332 709 418 749T600 789Q716 789 777 732T838 567V6H606ZM134 6V680L366 638V6H134ZM50 0L57 84Q85 98 113 107T171 123L134 25V182H366V25L333 114L462 86L455
0H50ZM532 0L539 88Q560 98 587 107T643 122L606 25V182H838V25L804 115L926 86L919 0H532ZM134 515V643L174 575L36 651L42 719Q96 743 163 759T302 781L358 602L134 515ZM233 858L162 904Q246 1105 387 1105Q444 1105 476 1082T531 1034T589 1010Q646 1010 707
1111L778 1065Q694 864 553 864Q496 864 464 888T409 935T351 959Q294 959 233 858Z" />
<glyph unicode="&#xf2;" horiz-adv-x="882" d="M440 -18Q255 -18 146 91T36 384Q36 570 146 680T443 790Q628 790 737 681T846 387Q846 201 736 92T440 -18ZM456 106Q590 106 590 359Q590 507 548 586T426 666Q292 666 292 413Q292 265 334 186T456 106ZM532 833L230
1081L225 1131Q313 1175 424 1178L615 881L532 833Z" />
<glyph unicode="&#xf3;" horiz-adv-x="882" d="M440 -18Q255 -18 146 91T36 384Q36 570 146 680T443 790Q628 790 737 681T846 387Q846 201 736 92T440 -18ZM456 106Q590 106 590 359Q590 507 548 586T426 666Q292 666 292 413Q292 265 334 186T456 106ZM360 833L277
881L478 1178Q589 1175 677 1131L672 1081L360 833Z" />
<glyph unicode="&#xf4;" horiz-adv-x="882" d="M440 -18Q255 -18 146 91T36 384Q36 570 146 680T443 790Q628 790 737 681T846 387Q846 201 736 92T440 -18ZM456 106Q590 106 590 359Q590 507 548 586T426 666Q292 666 292 413Q292 265 334 186T456 106ZM514 1164L713
898L639 837L363 1062L514 1164ZM514 1164L503 1062L238 831L165 888L360 1159Q395 1164 434 1165T514 1164Z" />
<glyph unicode="&#xf5;" horiz-adv-x="882" d="M440 -18Q255 -18 146 91T36 384Q36 570 146 680T443 790Q628 790 737 681T846 387Q846 201 736 92T440 -18ZM456 106Q590 106 590 359Q590 507 548 586T426 666Q292 666 292 413Q292 265 334 186T456 106ZM204 858L133
904Q217 1105 358 1105Q415 1105 447 1082T502 1034T560 1010Q617 1010 678 1111L749 1065Q665 864 524 864Q467 864 435 888T380 935T322 959Q265 959 204 858Z" />
<glyph unicode="&#xf6;" horiz-adv-x="882" d="M440 -18Q255 -18 146 91T36 384Q36 570 146 680T443 790Q628 790 737 681T846 387Q846 201 736 92T440 -18ZM456 106Q590 106 590 359Q590 507 548 586T426 666Q292 666 292 413Q292 265 334 186T456 106ZM277 866Q221
866 188 898T155 983Q155 1037 188 1069T277 1101Q333 1101 366 1069T399 983Q399 930 366 898T277 866ZM605 866Q549 866 516 898T483 983Q483 1037 516 1069T605 1101Q661 1101 694 1069T727 983Q727 930 694 898T605 866Z" />
<glyph unicode="&#xf7;" horiz-adv-x="794" d="M68 428V558H726V428H68ZM397 644Q353 644 327 670T301 741Q301 785 327 811T397 838Q441 838 467 812T493 741Q493 697 467 671T397 644ZM397 148Q353 148 327 174T301 245Q301 289 327 315T397 342Q441 342 467
316T493 245Q493 201 467 175T397 148Z" />
<glyph unicode="&#xf8;" horiz-adv-x="882" d="M440 -18Q320 -18 229 32T87 173T36 384Q36 570 146 680T443 790Q563 790 653 739T795 598T846 387Q846 201 736 92T440 -18ZM456 102Q596 102 596 359Q596 512 554 591T426 670Q286 670 286 413Q286 260 328 181T456
102ZM146 -63L72 0L209 172L227 190L736 835L810 772L673 600L655 582L146 -63Z" />
<glyph unicode="&#xf9;" horiz-adv-x="907" d="M344 -17Q89 -17 89 217V670L321 659V249Q321 184 344 156T418 127Q531 127 642 216L661 141Q527 -17 344 -17ZM89 515V643L129 598L10 665L17 741Q115 778 257 781H321V622L89 515ZM787 59L555 99V668L787 658V59ZM555
515V643L595 597L467 668L473 738Q523 757 588 768T723 781H787V622L555 515ZM619 -5L571 139L787 190V61L751 127L869 92L862 8Q772 -7 619 -5ZM523 833L221 1081L216 1131Q304 1175 415 1178L606 881L523 833Z" />
<glyph unicode="&#xfa;" horiz-adv-x="907" d="M344 -17Q89 -17 89 217V670L321 659V249Q321 184 344 156T418 127Q531 127 642 216L661 141Q527 -17 344 -17ZM89 515V643L129 598L10 665L17 741Q115 778 257 781H321V622L89 515ZM787 59L555 99V668L787 658V59ZM555
515V643L595 597L467 668L473 738Q523 757 588 768T723 781H787V622L555 515ZM619 -5L571 139L787 190V61L751 127L869 92L862 8Q772 -7 619 -5ZM351 833L268 881L469 1178Q580 1175 668 1131L663 1081L351 833Z" />
<glyph unicode="&#xfb;" horiz-adv-x="907" d="M344 -17Q89 -17 89 217V670L321 659V249Q321 184 344 156T418 127Q531 127 642 216L661 141Q527 -17 344 -17ZM89 515V643L129 598L10 665L17 741Q115 778 257 781H321V622L89 515ZM787 59L555 99V668L787 658V59ZM555
515V643L595 597L467 668L473 738Q523 757 588 768T723 781H787V622L555 515ZM619 -5L571 139L787 190V61L751 127L869 92L862 8Q772 -7 619 -5ZM505 1164L704 898L630 837L354 1062L505 1164ZM505 1164L494 1062L229 831L156 888L351 1159Q386 1164 425 1165T505
1164Z" />
<glyph unicode="&#xfc;" horiz-adv-x="907" d="M344 -17Q89 -17 89 217V670L321 659V249Q321 184 344 156T418 127Q531 127 642 216L661 141Q527 -17 344 -17ZM89 515V643L129 598L10 665L17 741Q115 778 257 781H321V622L89 515ZM787 59L555 99V668L787 658V59ZM555
515V643L595 597L467 668L473 738Q523 757 588 768T723 781H787V622L555 515ZM619 -5L571 139L787 190V61L751 127L869 92L862 8Q772 -7 619 -5ZM268 866Q212 866 179 898T146 983Q146 1037 179 1069T268 1101Q324 1101 357 1069T390 983Q390 930 357 898T268 866ZM596
866Q540 866 507 898T474 983Q474 1037 507 1069T596 1101Q652 1101 685 1069T718 983Q718 930 685 898T596 866Z" />
<glyph unicode="&#xfd;" horiz-adv-x="848" d="M392 -358Q268 -344 181 -296L384 22L420 48L646 680L669 654L551 682L558 772H846L839 684Q820 670 792 661T735 645L798 679L392 -358ZM349 -89L56 681L126 654L-3 682L4 772H396L389 682Q367 672 340 663T283
647L305 672L509 62L485 -1L349 -89ZM371 833L288 881L489 1178Q600 1175 688 1131L683 1081L371 833Z" />
<glyph unicode="&#xfe;" horiz-adv-x="880" d="M448 -18Q290 -18 211 76L243 181Q332 106 425 106Q508 106 553 175T598 375Q598 505 554 574T426 644Q344 644 251 569L232 632Q366 790 534 790Q679 790 764 688T850 411Q850 214 741 98T448 -18ZM12 -320L19 -236Q47
-222 75 -213T133 -197L96 -295V-138H328V-295L295 -208L464 -234L457 -320H12ZM96 -309V1072L328 1031V-309H96ZM96 900V1025L129 950L-6 1013L0 1079Q107 1117 242 1122H328V950L96 900Z" />
<glyph unicode="&#xff;" horiz-adv-x="848" d="M392 -358Q268 -344 181 -296L384 22L420 48L646 680L669 654L551 682L558 772H846L839 684Q820 670 792 661T735 645L798 679L392 -358ZM349 -89L56 681L126 654L-3 682L4 772H396L389 682Q367 672 340 663T283
647L305 672L509 62L485 -1L349 -89ZM288 866Q232 866 199 898T166 983Q166 1037 199 1069T288 1101Q344 1101 377 1069T410 983Q410 930 377 898T288 866ZM616 866Q560 866 527 898T494 983Q494 1037 527 1069T616 1101Q672 1101 705 1069T738 983Q738 930 705
898T616 866Z" />
<glyph unicode="&#x2013;" horiz-adv-x="904" d="M68 407V559H836V407H68Z" />
<glyph unicode="&#x2014;" horiz-adv-x="1244" d="M68 407V559H1176V407H68Z" />
<glyph unicode="&#x2018;" horiz-adv-x="367" d="M292 1180L340 1120Q299 1098 267 1072T217 1020Q196 991 189 959T182 894L130 932H313Q321 808 293 731Q245 716 194 716Q50 716 50 866Q50 964 115 1049T292 1180Z" />
<glyph unicode="&#x2019;" horiz-adv-x="367" d="M75 696L27 756Q68 778 100 804T150 856Q171 885 178 917T185 982L237 944H54Q46 1068 74 1145Q122 1160 173 1160Q317 1160 317 1010Q317 912 252 827T75 696Z" />
<glyph unicode="&#x201a;" horiz-adv-x="404" d="M84 -234L36 -174Q77 -152 109 -126T159 -74Q180 -45 187 -13T194 52L246 14H63Q55 138 83 215Q131 230 182 230Q326 230 326 80Q326 -18 261 -103T84 -234Z" />
<glyph unicode="&#x201c;" horiz-adv-x="677" d="M602 1180L650 1120Q609 1098 577 1072T527 1020Q506 991 499 959T492 894L440 932H623Q631 808 603 731Q555 716 504 716Q360 716 360 866Q360 964 425 1049T602 1180ZM292 1180L340 1120Q299 1098 267 1072T217
1020Q196 991 189 959T182 894L130 932H313Q321 808 293 731Q245 716 194 716Q50 716 50 866Q50 964 115 1049T292 1180Z" />
<glyph unicode="&#x201d;" horiz-adv-x="677" d="M75 696L27 756Q68 778 100 804T150 856Q171 885 178 917T185 982L237 944H54Q46 1068 74 1145Q122 1160 173 1160Q317 1160 317 1010Q317 912 252 827T75 696ZM385 696L337 756Q378 778 410 804T460 856Q481 885
488 917T495 982L547 944H364Q356 1068 384 1145Q432 1160 483 1160Q627 1160 627 1010Q627 912 562 827T385 696Z" />
<glyph unicode="&#x201e;" horiz-adv-x="714" d="M84 -234L36 -174Q77 -152 109 -126T159 -74Q180 -45 187 -13T194 52L246 14H63Q55 138 83 215Q131 230 182 230Q326 230 326 80Q326 -18 261 -103T84 -234ZM394 -234L346 -174Q387 -152 419 -126T469 -74Q490
-45 497 -13T504 52L556 14H373Q365 138 393 215Q441 230 492 230Q636 230 636 80Q636 -18 571 -103T394 -234Z" />
<glyph unicode="&#x2022;" horiz-adv-x="626" d="M313 291Q226 291 175 343T124 485Q124 574 175 626T313 679Q400 679 451 627T502 485Q502 396 451 344T313 291Z" />
<glyph unicode="&#x2039;" horiz-adv-x="512" d="M219 365L51 373Q50 395 51 415T57 451L376 766L458 703L219 365ZM376 53L51 373L219 454L458 116L376 53Z" />
<glyph unicode="&#x203a;" horiz-adv-x="512" d="M293 454L461 446Q462 424 461 404T455 368L136 53L54 116L293 454ZM136 766L461 446L293 365L54 703L136 766Z" />
</font>
</defs>
</svg>
