<?xml version="1.0" standalone="no"?>
<!DOCTYPE svg PUBLIC "-//W3C//DTD SVG 1.1//EN" "http://www.w3.org/Graphics/SVG/1.1/DTD/svg11.dtd">
<svg xmlns="http://www.w3.org/2000/svg">
<defs >
<font id="MarkaziText" horiz-adv-x="1032" ><font-face
    font-family="Markazi Text Medium"
    units-per-em="2048"
    panose-1="0 0 0 0 0 0 0 0 0 0"
    ascent="1718"
    descent="-740"
    alphabetic="0" />
<glyph unicode=" " horiz-adv-x="327" />
<glyph unicode="!" horiz-adv-x="427" d="M164 327L109 950V989Q154 996 208 997T318 995V950L263 327H164ZM214 -14Q160 -14 128 16T95 100Q95 153 127 183T214 214Q268 214 300 184T332 100Q332 47 300 17T214 -14Z" />
<glyph unicode="&quot;" horiz-adv-x="607" d="M130 701L85 1104V1140Q160 1151 255 1145V1104L209 701H130ZM396 701L351 1104V1140Q426 1151 521 1145V1104L475 701H396Z" />
<glyph unicode="#" horiz-adv-x="1031" d="M552 0L709 969H823L666 0H552ZM62 229V331H929V229H62ZM207 0L364 969H478L321 0H207ZM102 638V740H969V638H102Z" />
<glyph unicode="$" horiz-adv-x="829" d="M382 -7Q203 -7 92 75Q71 220 82 321H162L268 81L191 150Q294 91 403 91Q486 91 530 127T575 229Q575 285 541 320T429 379L330 410Q83 488 83 688Q83 820 176 898T426 976Q494 976 561 961T683 916Q701 797 693 699H610L523
895L617 819Q505 878 404 878Q253 878 253 747Q253 690 289 653T408 591L508 560Q748 487 748 288Q748 151 649 72T382 -7ZM320 -166L410 1137H488L398 -166H320Z" />
<glyph unicode="%" horiz-adv-x="1340" d="M339 479Q222 479 153 550T83 741Q83 861 153 932T340 1003Q457 1003 526 932T595 741Q595 621 526 550T339 479ZM349 552Q447 552 447 725Q447 825 417 877T330 930Q232 930 232 758Q232 659 262 606T349 552ZM1001
-13Q883 -13 814 58T745 249Q745 369 814 440T1002 511Q1118 511 1187 440T1257 249Q1257 129 1188 58T1001 -13ZM1010 60Q1108 60 1108 233Q1108 333 1078 385T991 438Q893 438 893 266Q893 167 923 114T1010 60ZM288 -5L916 990Q981 1000 1052 995L424 0Q359
-10 288 -5Z" />
<glyph unicode="&amp;" horiz-adv-x="1050" d="M798 0L271 523Q153 640 153 764Q153 875 236 941T459 1008Q588 1008 665 951T742 797Q742 701 664 623T441 496L373 544Q563 630 563 776Q563 838 531 872T438 907Q332 907 332 790Q332 739 355 695T436 593L969
62L888 99L1013 75L1007 0H798ZM385 -18Q236 -18 148 48T59 228Q59 328 133 410T351 539L419 491Q334 454 290 396T246 256Q246 174 289 130T415 86Q487 86 548 124T673 248L748 176Q681 77 593 30T385 -18ZM740 160L657 221L832 468L834 422L710 451L715 525H1031L1025
453Q1002 439 972 430T913 414L981 463L740 160Z" />
<glyph unicode="&apos;" horiz-adv-x="341" d="M130 701L85 1104V1140Q160 1151 255 1145V1104L209 701H130Z" />
<glyph unicode="(" horiz-adv-x="466" d="M463 1221Q353 1084 304 922T255 531Q255 56 463 -202L407 -238Q308 -191 235 -83T123 176T83 509Q83 689 122 841T235 1101T407 1257L463 1221Z" />
<glyph unicode=")" horiz-adv-x="466" d="M3 -202Q113 -65 162 97T211 488Q211 963 3 1221L59 1257Q158 1210 231 1102T343 843T383 510Q383 330 344 178T231 -82T59 -238L3 -202Z" />
<glyph unicode="*" horiz-adv-x="853" d="M453 446L443 480L398 788L454 804L579 519L587 492Q530 461 453 446ZM400 1140L410 1105L455 798L399 781L274 1067L266 1094Q323 1125 400 1140ZM741 642L705 650L417 765L430 823L740 787L768 781Q765 713 741 642ZM113
943L148 935L436 820L423 763L113 798L85 804Q88 873 113 943ZM714 989L690 963L446 771L402 811L588 1062L607 1083Q635 1064 663 1040T714 989ZM139 596L163 622L408 815L451 775L266 524L247 503Q187 541 139 596Z" />
<glyph unicode="+" horiz-adv-x="802" d="M85 426V543H717V426H85ZM459 161H343V808H459V161Z" />
<glyph unicode="," horiz-adv-x="389" d="M76 -251L29 -202Q71 -172 106 -136T156 -73Q175 -42 184 -13T198 52L229 14H83Q73 121 105 202Q141 214 186 214Q314 214 314 82Q314 -10 248 -103T76 -251Z" />
<glyph unicode="-" horiz-adv-x="610" d="M85 386V521H525V386H85Z" />
<glyph unicode="." horiz-adv-x="389" d="M195 -15Q140 -15 108 16T75 101Q75 155 107 186T195 217Q249 217 281 186T314 101Q314 48 282 17T195 -15Z" />
<glyph unicode="/" horiz-adv-x="643" d="M38 -200L466 1225Q532 1235 605 1230L177 -195Q112 -205 38 -200Z" />
<glyph unicode="0" horiz-adv-x="929" d="M463 -18Q280 -18 172 117T63 483Q63 637 112 750T252 925T465 987Q649 987 757 851T865 485Q865 331 816 218T677 44T463 -18ZM481 88Q655 88 655 448Q655 656 602 768T447 881Q274 881 274 520Q274 311 327 200T481 88Z" />
<glyph unicode="1" horiz-adv-x="675" d="M265 15V874L453 969V15H265ZM294 808L76 826L73 886Q224 954 399 981H453V839L294 808ZM87 0L93 70Q132 80 183 89T290 106L265 25V169H453V25L431 99L625 72L620 0H87Z" />
<glyph unicode="2" horiz-adv-x="799" d="M35 0L43 93L201 258Q321 385 386 465T477 603T502 718Q502 798 463 840T347 883Q258 883 179 825L72 664Q70 726 75 788T93 895Q162 938 246 962T413 986Q549 986 627 918T705 732Q705 660 671 586T553 413T323 170L150
0H35ZM35 0L167 103H716V0H35ZM715 0L563 68L659 262H739Q745 138 715 0ZM72 664L93 863L289 913L164 664H72Z" />
<glyph unicode="3" horiz-adv-x="798" d="M380 -17Q193 -17 77 83Q65 129 60 189T56 314L164 155Q244 87 368 87Q532 87 532 257Q532 349 488 398T362 448H290L299 557L369 550Q546 550 640 480T735 278Q735 143 639 63T380 -17ZM271 64L92 108L56 314H146L271
64ZM88 671L112 859L305 920L180 671H88ZM347 469L299 557H354Q504 557 504 712Q504 795 466 839T355 883Q269 883 187 825L88 671Q86 736 91 795T109 902Q176 940 260 963T421 986Q549 986 625 920T701 742Q701 617 605 543T347 469Z" />
<glyph unicode="4" horiz-adv-x="849" d="M123 285L27 323L464 969H576L123 285ZM19 235L27 323L108 335H817L810 235H19ZM451 0V863L464 969H635V0H451ZM333 0L339 70Q398 94 476 108L451 25V170H635V25L612 101L757 72L751 0H333Z" />
<glyph unicode="5" horiz-adv-x="796" d="M376 -17Q190 -17 73 83Q61 129 56 186T52 308L154 157Q242 87 364 87Q534 87 534 265Q534 374 474 432T302 491Q273 491 227 488T140 477L157 578Q214 595 275 604T389 613Q549 613 643 530T737 303Q737 156 640 70T376
-17ZM265 64L82 114L52 308H143L265 64ZM140 477L89 513L117 969L223 963L195 504L140 477ZM159 827L117 969H696L684 827H159Z" />
<glyph unicode="6" horiz-adv-x="834" d="M424 -18Q251 -18 157 87T63 389Q63 576 147 714T386 926Q442 952 509 968T643 987L690 889Q575 877 493 844Q262 752 262 395Q262 88 435 88Q509 88 548 139T588 283Q588 385 540 440T404 495Q305 495 213 420L194 470Q322
621 492 621Q627 621 706 539T786 319Q786 165 689 74T424 -18Z" />
<glyph unicode="7" horiz-adv-x="727" d="M115 0L116 24L581 969H707L701 871L318 0H115ZM25 684Q17 831 47 969L197 892L95 684H25ZM50 859L47 969H707L645 859H50Z" />
<glyph unicode="8" horiz-adv-x="856" d="M410 -18Q253 -18 160 46T67 221Q67 315 137 384T338 489L399 451Q251 381 251 246Q251 168 298 126T433 83Q516 83 561 120T606 228Q606 284 571 321T456 384L352 419Q101 501 101 704Q101 834 192 910T437 987Q579 987
662 923T746 751Q746 659 684 594T505 499L453 534Q569 594 569 723Q569 801 530 843T416 886Q278 886 278 753Q278 695 312 658T424 595L528 561Q788 475 788 272Q788 139 686 61T410 -18Z" />
<glyph unicode="9" horiz-adv-x="834" d="M410 987Q583 987 677 882T771 580Q771 393 687 255T448 43Q392 17 325 1T191 -18L144 80Q259 92 341 125Q572 217 572 574Q572 881 399 881Q325 881 286 830T246 686Q246 584 294 529T430 474Q529 474 621 549L640 499Q512
348 342 348Q207 348 128 430T48 650Q48 804 145 895T410 987Z" />
<glyph unicode=":" horiz-adv-x="409" d="M205 -15Q150 -15 118 16T85 101Q85 155 117 186T205 217Q259 217 291 186T324 101Q324 48 292 17T205 -15ZM205 478Q150 478 118 509T85 594Q85 648 117 679T205 710Q259 710 291 679T324 594Q324 541 292 510T205 478Z" />
<glyph unicode=";" horiz-adv-x="409" d="M86 -251L39 -202Q81 -172 116 -136T166 -73Q185 -42 194 -13T208 52L239 14H93Q83 121 115 202Q151 214 196 214Q324 214 324 82Q324 -10 258 -103T86 -251ZM205 478Q150 478 118 509T85 594Q85 648 117 679T205 710Q259
710 291 679T324 594Q324 541 292 510T205 478Z" />
<glyph unicode="&lt;" horiz-adv-x="802" d="M91 429Q89 453 89 485T93 540L680 817L734 712L198 462L91 429ZM680 151L91 429L199 507L735 258L680 151Z" />
<glyph unicode="=" horiz-adv-x="802" d="M85 577V694H717V577H85ZM85 275V391H717V275H85Z" />
<glyph unicode="&gt;" horiz-adv-x="802" d="M711 539Q713 515 713 483T709 428L122 151L68 256L604 506L711 539ZM122 817L711 539L603 461L67 710L122 817Z" />
<glyph unicode="?" horiz-adv-x="709" d="M259 327L244 489L282 514Q383 581 420 630T457 749Q457 904 314 904Q225 904 146 846L50 687Q48 752 53 811T71 918Q134 960 216 983T380 1007Q510 1007 585 945T660 775Q660 713 631 658T533 543T347 411L326 398L369
443L358 327H259ZM50 687L73 885L267 936L142 687H50ZM309 -14Q255 -14 223 16T191 100Q191 153 223 183T309 214Q363 214 395 184T428 100Q428 47 396 17T309 -14Z" />
<glyph unicode="@" horiz-adv-x="1516" d="M699 -285Q401 -285 240 -118T79 357Q79 595 171 769T431 1038T830 1133Q1121 1133 1279 977T1437 535Q1437 309 1340 187T1064 65Q878 65 873 207L857 196L891 671L957 716Q979 739 1003 752H1071L1059 657L1032 268Q1028
213 1045 196T1099 178Q1195 178 1247 264T1300 508Q1300 752 1174 886T811 1021Q629 1021 496 942T289 718T215 377Q215 112 350 -30T732 -173Q820 -173 917 -155T1108 -103L1101 -191Q1037 -234 927 -259T699 -285ZM668 55Q549 55 485 131T421 354Q421 543 525
655T803 768Q879 768 925 744T994 666L956 607Q919 638 876 656T788 675Q699 675 651 601T603 391Q603 171 742 171Q794 171 828 191T891 252L915 207Q872 134 811 95T668 55Z" />
<glyph unicode="A" horiz-adv-x="1014" d="M602 996L927 73L879 101L1008 74L1003 0H614L620 76Q667 97 737 111L722 83L446 927L410 991Q451 996 502 997T602 996ZM526 990L223 73L210 102L334 74L329 0H13L18 72Q41 84 72 93T138 110L87 73L410 991L526 990ZM234
276L267 381H711L745 276H234Z" />
<glyph unicode="B" horiz-adv-x="957" d="M246 0L256 109H483Q691 109 691 276Q691 455 453 455H256V544H463Q901 544 901 298Q901 161 782 81T461 0H246ZM161 15V976H353V15H161ZM227 490L246 553H473Q639 553 639 720Q639 881 480 881H241V990H490Q661 990 753
927T845 745Q845 622 745 556T456 490H227ZM55 0L60 72Q111 93 187 111L161 27V173H353V27L330 103L463 74L457 0H55ZM459 990L453 918Q402 897 327 879L353 963V817H161V963L184 887L51 916L56 990H459Z" />
<glyph unicode="C" horiz-adv-x="964" d="M590 -17Q334 -17 197 110T59 474Q59 637 123 756T303 941T580 1007Q662 1007 740 990T869 944Q888 819 880 697H797L698 921L790 846Q683 901 562 901Q278 901 278 510Q278 89 608 89Q733 89 836 145L830 77H694L820
309H907Q909 186 874 47Q823 17 747 0T590 -17Z" />
<glyph unicode="D" horiz-adv-x="1047" d="M261 0V110H503Q633 110 703 209T773 495Q773 880 450 880H261V990H459Q715 990 853 866T991 512Q991 356 929 241T753 63T483 0H261ZM161 15V976H353V15H161ZM55 0L60 72Q111 93 187 111L161 27V173H353V27L330 103L463
74L457 0H55ZM459 990L453 918Q402 897 327 879L353 963V817H161V963L184 887L51 916L56 990H459Z" />
<glyph unicode="E" horiz-adv-x="918" d="M161 15V976H353V15H161ZM260 0V110H803L827 0H260ZM827 0L656 63L782 295H869Q871 237 860 157T827 0ZM244 449V567H687L678 449H244ZM202 880V990H816L797 880H202ZM746 713L653 923L816 990Q831 921 835 849T835 713H746ZM55
0L60 72Q111 93 187 111L161 27V173H353V27L330 103L463 74L457 0H55ZM459 990L453 918Q402 897 327 879L353 963V817H161V963L184 887L51 916L56 990H459Z" />
<glyph unicode="F" horiz-adv-x="834" d="M161 15V976H353V15H161ZM244 418V535H667L658 418H244ZM202 880V990H772L753 880H202ZM708 699L609 923L772 990Q787 923 791 847T791 699H708ZM55 0L60 72Q111 93 187 111L161 27V173H353V27L326 102L493 74L487 0H55ZM459
990L453 918Q402 897 327 879L353 963V817H161V963L184 887L51 916L56 990H459Z" />
<glyph unicode="G" horiz-adv-x="1022" d="M604 -17Q342 -17 201 110T59 473Q59 636 124 756T310 941T594 1007Q679 1007 757 990T884 944Q893 882 896 821T895 709H809L714 921L806 846Q695 901 576 901Q274 901 274 510Q274 92 622 92Q751 92 868 146L911 46Q856
15 777 -1T604 -17ZM725 41V393H911V46L725 41ZM725 293V433L747 366L568 393L574 467H977L970 385Q935 367 886 356L911 433V293H725Z" />
<glyph unicode="H" horiz-adv-x="1101" d="M749 15V976H941V15H749ZM161 15V976H353V15H161ZM249 445V553H846V445H249ZM55 0L60 72Q111 93 187 111L161 27V173H353V27L330 103L463 74L457 0H55ZM643 0L648 72Q699 93 775 111L749 27V173H941V27L918 103L1051
74L1045 0H643ZM1047 990L1041 918Q990 897 915 879L941 963V817H749V963L772 887L639 916L644 990H1047ZM459 990L453 918Q402 897 327 879L353 963V817H161V963L184 887L51 916L56 990H459Z" />
<glyph unicode="I" horiz-adv-x="517" d="M163 15V976H355V15H163ZM57 0L62 72Q113 93 189 111L163 27V173H355V27L332 103L465 74L459 0H57ZM461 990L455 918Q404 897 329 879L355 963V817H163V963L186 887L53 916L58 990H461Z" />
<glyph unicode="J" horiz-adv-x="711" d="M265 -16Q151 -16 57 20Q34 136 43 261H133L219 67L139 117Q206 92 260 92Q387 92 387 249L579 230Q579 116 495 50T265 -16ZM579 230L387 249V976H579V230ZM675 990L669 918Q626 897 553 879L579 963V817H387V963L413
888L243 916L248 990H675Z" />
<glyph unicode="K" horiz-adv-x="997" d="M740 0L393 456V518L744 930L728 888L592 916L598 990H967L962 918Q939 906 908 897T842 880L908 924L528 484L543 561L932 73L855 104L989 78L984 0H740ZM161 15V974H353V15H161ZM260 431V543H522V431H260ZM55 0L60 72Q111
93 187 111L161 27V173H353V27L330 103L463 74L457 0H55ZM459 990L453 918Q402 897 327 879L353 963V817H161V963L184 887L51 916L56 990H459Z" />
<glyph unicode="L" horiz-adv-x="884" d="M161 15V976H353V15H161ZM259 0V110H761L801 0H259ZM801 0L624 63L771 335H845Q845 156 801 0ZM499 990L493 918Q460 908 417 898T327 881L353 963V817H161V963L184 887L51 916L56 990H499ZM55 0L60 72Q111 93 187 111L161
27V173H353V27L330 103L463 74L457 0H55Z" />
<glyph unicode="M" horiz-adv-x="1397" d="M596 43L244 990H441L748 131L745 47Q710 43 672 42T596 43ZM41 0L46 72Q96 95 167 111L136 36L195 944L216 887L76 916L82 990H326L274 38L253 103L397 74L391 0H41ZM745 47L632 68L954 990H1095L745 47ZM948 0L953
72Q981 83 1017 93T1090 110L1067 43L1016 990H1312L1306 918Q1251 895 1173 880L1197 935L1256 46L1231 103L1357 74L1351 0H948Z" />
<glyph unicode="N" horiz-adv-x="1081" d="M814 -6L170 860L292 990L936 122L945 -1Q888 -12 814 -6ZM161 15V976L299 917V15H161ZM300 818L184 869L51 916L56 990H292L300 818ZM945 -1L807 57V976H945V-1ZM55 0L61 72Q112 93 187 111L161 27V173H299V27L274 103L423
74L417 0H55ZM1045 990L1039 918Q983 893 918 879L945 963V817H807V963L830 887L697 916L703 990H1045Z" />
<glyph unicode="O" horiz-adv-x="1082" d="M540 -18Q393 -18 285 45T118 223T59 494Q59 651 118 766T285 945T541 1008Q688 1008 796 945T964 767T1023 496Q1023 339 964 224T797 45T540 -18ZM566 90Q804 90 804 457Q804 671 730 785T516 900Q278 900 278 533Q278
319 352 205T566 90Z" />
<glyph unicode="P" horiz-adv-x="904" d="M454 340Q354 340 240 352L255 456Q367 444 472 444Q656 444 656 664Q656 880 480 880H240V990H489Q672 990 770 912T868 686Q868 527 756 434T454 340ZM161 15V976H353V15H161ZM55 0L60 72Q111 93 187 111L161 27V173H353V27L326
102L493 74L487 0H55ZM459 990L453 918Q402 897 327 879L353 963V817H161V963L184 887L51 916L56 990H459Z" />
<glyph unicode="Q" horiz-adv-x="1081" d="M946 -275Q775 -275 653 -199T473 22L666 93Q749 -156 1009 -156Q1061 -156 1116 -147T1218 -120L1210 -216Q1164 -244 1094 -259T946 -275ZM541 -18Q395 -18 287 45T120 223T61 494Q61 651 120 766T287 945T542 1008Q689
1008 797 945T965 767T1024 496Q1024 339 965 224T798 45T541 -18ZM567 90Q805 90 805 457Q805 671 731 785T518 900Q279 900 279 533Q279 319 354 205T567 90Z" />
<glyph unicode="R" horiz-adv-x="975" d="M722 0L415 406L602 457L906 73L829 104L963 78L958 0H722ZM434 381Q334 381 220 393L235 493Q347 481 452 481Q643 481 643 683Q643 880 460 880H240V990H469Q654 990 753 917T853 705Q853 584 777 504T567 406L504 385Q487
383 470 382T434 381ZM161 15V976H353V15H161ZM55 0L60 72Q111 93 187 111L161 27V173H353V27L331 103L455 74L449 0H55ZM459 990L453 918Q402 897 327 879L353 963V817H161V963L184 887L51 916L56 990H459Z" />
<glyph unicode="S" horiz-adv-x="820" d="M375 -16Q189 -16 73 70Q51 221 63 327H146L257 76L176 148Q284 87 398 87Q484 87 529 124T575 229Q575 286 540 321T424 382L320 415Q64 495 64 705Q64 843 161 924T422 1006Q571 1006 690 944Q709 819 701 717H614L523
921L621 842Q504 903 399 903Q244 903 244 770Q244 712 282 675T405 610L509 577Q759 498 759 293Q759 151 655 68T375 -16Z" />
<glyph unicode="T" horiz-adv-x="923" d="M365 15V976H557V15H365ZM30 685Q17 844 46 990L214 923L108 685H30ZM64 880L46 990H877L841 880H64ZM815 685L709 923L877 990Q906 844 893 685H815ZM243 0L249 72Q279 83 315 92T391 109L365 27V173H557V27L533 103L683
74L678 0H243Z" />
<glyph unicode="U" horiz-adv-x="1037" d="M521 -17Q345 -17 241 66T137 289L333 313Q333 218 388 166T547 114Q650 114 706 166T762 313L905 289Q905 149 801 66T521 -17ZM137 289V976H333V313L137 289ZM137 817V963L158 887L37 916L42 990H453L447 918Q425 910
389 900T305 880L333 963V817H137ZM905 289L762 313V976H905V289ZM762 817V963L786 887L638 916L644 990H1001L995 918Q952 897 879 879L905 963V817H762Z" />
<glyph unicode="V" horiz-adv-x="986" d="M402 -6L87 917L135 889L6 916L11 990H412L406 916Q362 897 279 882L294 907L561 63L586 -1Q547 -6 498 -7T402 -6ZM467 0L761 917L776 888L640 916L645 990H973L968 918Q945 906 914 897T848 880L899 917L586 -1L467 0Z" />
<glyph unicode="W" horiz-adv-x="1460" d="M356 -6L88 918L139 889L6 916L11 990H408L402 916Q358 897 275 882L290 912L509 77L532 -1Q496 -6 447 -7T356 -6ZM532 -1L422 14L679 964L799 963L532 -1ZM929 -6L688 900L679 964Q714 969 761 970T848 970L1081 77L1106
-1Q1070 -6 1021 -7T929 -6ZM1106 -1L995 14L1238 917L1254 888L1119 916L1124 990H1447L1441 918Q1420 907 1390 897T1322 881L1371 916L1106 -1Z" />
<glyph unicode="X" horiz-adv-x="1001" d="M558 0L564 74Q615 95 691 108L684 82L429 466L600 534L923 65L852 103L984 74L979 0H558ZM23 0L28 72Q79 98 148 110L81 70L427 525L571 520L243 71L239 103L372 74L367 0H23ZM417 460L94 925L165 887L33 916L38 990H457L451
916Q404 895 326 882L333 908L588 528L417 460ZM566 469L422 474L750 919L754 887L623 916L628 990H970L965 918Q914 892 845 880L912 920L566 469Z" />
<glyph unicode="Y" horiz-adv-x="946" d="M382 337L83 917L135 889L6 916L11 990H410L404 916Q360 897 277 882L288 907L539 406L566 342L382 337ZM447 343L727 917L738 888L602 916L607 990H933L928 918Q905 906 874 897T808 880L863 917L566 342L447 343ZM378
15V407H570V15H378ZM256 0L262 72Q291 83 328 92T404 109L378 27V173H570V27L546 103L696 74L690 0H256Z" />
<glyph unicode="Z" horiz-adv-x="897" d="M36 0L43 93L673 990H844L837 897L206 0H36ZM36 0L172 105H817L814 0H36ZM71 675Q65 756 69 837T88 990L255 926L145 675H71ZM86 885L88 990H844L709 885H86ZM845 335Q848 261 840 175T815 0L649 62L771 335H845Z" />
<glyph unicode="[" horiz-adv-x="495" d="M101 -218V1237H263V-218H101ZM101 -218L117 -107L475 -146L470 -218H101ZM117 1126L101 1237H470L475 1165L117 1126Z" />
<glyph unicode="\" horiz-adv-x="643" d="M605 -200L177 1225Q111 1235 38 1230L466 -195Q531 -205 605 -200Z" />
<glyph unicode="]" horiz-adv-x="495" d="M394 1236V-219H232V1236H394ZM394 1236L378 1125L20 1164L25 1236H394ZM378 -108L394 -219H25L20 -147L378 -108Z" />
<glyph unicode="^" horiz-adv-x="802" d="M641 538L329 878L446 990L712 588L641 538ZM158 535L88 583L347 987Q394 995 446 990L447 865L158 535Z" />
<glyph unicode="_" horiz-adv-x="661" d="M15 -203V-81H646V-203H15Z" />
<glyph unicode="`" horiz-adv-x="800" d="M488 833L202 1078L199 1114Q276 1153 371 1156L558 874L488 833Z" />
<glyph unicode="a" horiz-adv-x="784" d="M465 108Q465 191 467 277T469 440V527Q469 669 336 669Q249 669 172 611L95 527Q92 618 106 694Q245 772 405 772Q651 772 651 548Q651 519 650 463T648 341T646 219T645 132L465 108ZM95 527L108 642L275 699L190 527H95ZM262
-15Q164 -15 106 41T48 191Q48 392 343 454L513 489L525 397L382 379Q305 369 271 336T236 236Q236 107 344 107Q420 107 525 182L543 139Q420 -15 262 -15ZM512 -4L473 131L645 177V61L619 110L739 75L734 8Q649 -6 512 -4Z" />
<glyph unicode="b" horiz-adv-x="857" d="M419 -18Q265 -18 199 76L231 161Q320 86 419 86Q512 86 561 159T611 367Q611 502 562 574T422 647Q334 647 239 572L220 621Q347 773 506 773Q645 773 727 673T810 402Q810 210 704 96T419 -18ZM108 0L115 144V1070L299
1030V76L237 46Q215 20 186 0H108ZM115 896V1021L136 973L1 1029L5 1078Q104 1113 230 1118H299V946L115 896Z" />
<glyph unicode="c" horiz-adv-x="727" d="M431 -16Q249 -16 151 82T53 362Q53 550 154 661T427 773Q554 773 653 716Q662 674 666 624T667 521H577L491 693L574 621Q536 644 494 657T417 670Q340 670 298 602T256 406Q256 113 496 113Q592 113 691 150L683 45Q583
-16 431 -16Z" />
<glyph unicode="d" horiz-adv-x="875" d="M351 -18Q212 -18 130 82T47 352Q47 545 153 659T438 773Q592 773 658 679L626 594Q537 669 438 669Q345 669 296 596T246 388Q246 253 295 181T435 108Q523 108 618 183L637 133Q510 -18 351 -18ZM743 58L559 99V1017H743V58ZM559
896V1021L580 973L435 1030L439 1076Q545 1113 674 1118H743V946L559 896ZM609 -4L571 131L743 177V61L716 110L837 75L831 8Q746 -6 609 -4Z" />
<glyph unicode="e" horiz-adv-x="790" d="M444 -16Q256 -16 155 83T53 366Q53 553 153 663T422 773Q575 773 657 680T739 414Q739 399 738 382T735 350L544 387Q544 538 510 604T399 671Q251 671 251 430Q251 113 507 113Q607 113 716 154L708 49Q660 18 591 1T444
-16ZM132 350V439H719L735 350H132Z" />
<glyph unicode="f" horiz-adv-x="555" d="M153 6V752Q153 867 194 953T310 1088T484 1136Q543 1136 583 1120L571 985Q511 999 462 999Q391 999 362 960T333 822V710L336 690V6H153ZM32 649L39 732Q94 749 161 755H537L529 649H32ZM57 0L62 68Q91 82 120 91T178
107L153 26V169H336V26L312 97L488 70L483 0H57Z" />
<glyph unicode="g" horiz-adv-x="792" d="M366 238Q226 238 143 310T60 504Q60 627 143 699T368 772Q446 772 516 738T630 643T674 506Q674 383 591 311T366 238ZM378 331Q492 331 492 488Q492 679 355 679Q242 679 242 522Q242 430 277 381T378 331ZM755 644L520
656L368 772Q415 772 442 767T494 755T553 749Q578 749 635 752T766 763L755 644ZM353 -350Q204 -350 115 -296T26 -149Q26 -31 189 36L247 4Q182 -48 182 -116Q182 -182 235 -217T386 -252Q490 -252 551 -214T613 -112Q613 -48 528 -48H295Q207 -48 159 -9T111
105Q111 228 254 300L322 288Q248 233 248 171Q248 109 333 109H565Q670 109 726 65T783 -61Q783 -145 728 -210T575 -312T353 -350Z" />
<glyph unicode="h" horiz-adv-x="927" d="M143 6V1034L327 1005V6H143ZM605 6V509Q605 646 476 646Q374 646 268 562L249 615Q374 772 563 772Q672 772 730 715T789 550V6H605ZM47 0L52 68Q81 82 110 91T168 107L143 25V169H327V25L305 99L429 70L424 0H47ZM524
0L530 72Q551 82 576 91T630 107L605 25V169H789V25L767 99L889 70L883 0H524ZM143 896V1021L164 973L29 1029L33 1078Q132 1113 258 1118H327V946L143 896Z" />
<glyph unicode="i" horiz-adv-x="485" d="M157 6V684L341 703V6H157ZM157 511V639L186 587L48 656L53 707Q100 728 161 743T290 764H341V605L157 511ZM55 0L60 68Q86 80 116 89T183 107L157 25V169H341V25L318 99L447 70L441 0H55ZM234 878Q181 878 150 908T118
990Q118 1041 149 1071T234 1102Q287 1102 318 1072T350 990Q350 939 319 909T234 878Z" />
<glyph unicode="j" horiz-adv-x="436" d="M92 -344L34 -296L60 -265Q101 -213 119 -134T138 67V686L322 692V108Q322 -42 301 -119Q280 -194 229 -251T92 -344ZM138 511V639L167 587L29 656L34 707Q80 728 141 743T271 764H322V605L138 511ZM213 878Q160 878 129
908T97 990Q97 1041 128 1071T213 1102Q266 1102 297 1072T329 990Q329 939 298 909T213 878Z" />
<glyph unicode="k" horiz-adv-x="883" d="M143 6V1054H327V6H143ZM233 344V449H431V344H233ZM648 0L373 370V424L638 698L616 652L492 681L497 755H842L837 683Q813 669 785 660T727 644L797 693L506 402L518 465L829 69L752 103L874 74L869 0H648ZM47 0L52 68Q81
82 110 91T168 107L143 25V169H327V25L305 99L421 72L416 0H47ZM143 896V1021L164 973L29 1029L33 1078Q132 1113 258 1118H327V946L143 896Z" />
<glyph unicode="l" horiz-adv-x="495" d="M157 6V1034L341 1005V6H157ZM49 0L54 68Q81 79 112 88T182 107L157 25V169H341V25L319 99L453 70L447 0H49ZM157 896V1021L178 973L43 1029L47 1078Q146 1113 272 1118H341V946L157 896Z" />
<glyph unicode="m" horiz-adv-x="1376" d="M1053 6V509Q1053 646 929 646Q834 646 727 562L707 618Q834 772 1017 772Q1123 772 1180 715T1237 550V6H1053ZM57 0L62 68Q91 82 120 91T178 107L153 25V169H337V25L315 99L435 70L430 0H57ZM153 6V676L337 634V6H153ZM521
0L527 72Q548 82 573 91T627 107L602 25V169H786V25L764 99L882 70L876 0H521ZM602 6V509Q602 646 479 646Q384 646 278 562L258 618Q385 772 567 772Q671 772 728 716T786 552V6H602ZM153 511V639L182 587L44 656L49 707Q96 728 157 743T286 764L330 598L153 511ZM973
0L978 72Q999 82 1024 91T1078 107L1053 25V169H1237V25L1215 99L1337 70L1332 0H973Z" />
<glyph unicode="n" horiz-adv-x="934" d="M611 6V509Q611 646 484 646Q384 646 278 562L258 618Q319 693 400 732T572 772Q680 772 737 715T795 550V6H611ZM153 6V676L337 634V6H153ZM57 0L62 68Q91 82 120 91T178 107L153 25V169H337V25L315 99L439 70L434 0H57ZM531
0L536 72Q557 82 582 91T636 107L611 25V169H795V25L773 99L895 70L890 0H531ZM153 511V639L182 587L44 656L49 707Q96 728 157 743T286 764L330 598L153 511Z" />
<glyph unicode="o" horiz-adv-x="861" d="M429 -18Q257 -18 155 88T53 375Q53 557 156 665T432 773Q605 773 706 666T807 378Q807 196 705 89T429 -18ZM446 86Q605 86 605 351Q605 504 556 586T415 669Q256 669 256 404Q256 250 305 168T446 86Z" />
<glyph unicode="p" horiz-adv-x="874" d="M436 -18Q282 -18 216 76L248 161Q337 86 436 86Q528 86 578 159T628 367Q628 502 579 574T439 647Q351 647 256 572L237 621Q364 773 523 773Q663 773 745 673T827 402Q827 210 721 96T436 -18ZM36 -320L41 -252Q70 -238
99 -229T157 -213L132 -295V-151H316V-295L294 -223L458 -250L453 -320H36ZM132 -309V672L316 631V-309H132ZM132 511V639L161 587L23 656L28 707Q74 728 135 743T265 764L309 598L132 511Z" />
<glyph unicode="q" horiz-adv-x="861" d="M351 -18Q212 -18 130 82T47 352Q47 545 153 659T438 773Q592 773 658 679L626 594Q537 669 438 669Q345 669 296 596T246 388Q246 253 295 181T435 108Q523 108 618 183L637 133Q510 -18 351 -18ZM423 -320L428 -252Q494
-229 584 -215L559 -295V-151H743V-295L721 -221L845 -250L840 -320H423ZM559 -311V671L621 709Q642 735 671 755H749L743 639V-311H559Z" />
<glyph unicode="r" horiz-adv-x="606" d="M153 6V646L337 595V6H153ZM57 0L62 68Q91 82 120 91T178 107L153 26V169H337V26L315 97L479 70L474 0H57ZM293 495L273 535Q327 657 388 711T533 765Q546 765 559 764T584 759L571 606Q552 609 531 610T494 612Q430 612
382 585T293 495ZM153 511V639L182 587L44 656L49 707Q96 728 157 743T286 764L330 598L153 511Z" />
<glyph unicode="s" horiz-adv-x="674" d="M311 -16Q165 -16 67 51Q59 91 55 141T54 245H141L226 73L162 130Q238 81 327 81Q450 81 450 175Q450 245 350 277L262 305Q63 367 63 532Q63 642 140 706T348 771Q466 771 562 722Q579 643 576 546H485L400 718L497 626Q411
673 332 673Q228 673 228 587Q228 517 335 483L423 455Q524 423 571 367T619 230Q619 117 536 51T311 -16Z" />
<glyph unicode="t" horiz-adv-x="561" d="M348 -12Q132 -12 132 200V684L141 755L185 945H316V230Q316 165 339 137T417 108Q462 108 532 125L525 29Q452 -12 348 -12ZM12 649L19 732Q74 749 141 755H527L519 649H12Z" />
<glyph unicode="u" horiz-adv-x="880" d="M329 -17Q105 -17 105 217V670L289 659V249Q289 174 316 141T403 107Q510 107 621 196L640 141Q506 -17 329 -17ZM105 540V652L134 610L15 670L21 729Q112 761 238 764H289V601L105 540ZM742 59L558 99V668L742 658V59ZM558
540V652L587 609L459 673L464 726Q512 743 571 753T691 764H742V603L558 540ZM608 -4L570 131L742 177V61L715 110L836 75L830 8Q745 -6 608 -4Z" />
<glyph unicode="v" horiz-adv-x="831" d="M505 -1L392 0L624 681L636 652L522 681L528 755H819L813 683Q789 669 761 660T704 644L755 680L505 -1ZM328 -6L77 680L130 652L6 681L11 755H374L368 681Q347 671 319 662T261 646L276 671L480 63L505 -1Q468 -6 421
-7T328 -6Z" />
<glyph unicode="w" horiz-adv-x="1209" d="M294 -6L80 681L130 652L8 681L13 755H372L366 681Q346 671 317 662T259 646L274 676L439 77L463 -1Q442 -4 412 -6T350 -8T294 -6ZM359 14L561 732L676 731L463 -1L359 14ZM749 -6L570 634L561 732Q592 737 634 739T711
738L891 77L917 -1Q897 -4 867 -6T805 -8T749 -6ZM814 14L1002 680L1014 652L903 681L908 755H1194L1189 683Q1166 669 1138 660T1080 644L1129 679L917 -1L814 14Z" />
<glyph unicode="x" horiz-adv-x="833" d="M23 0L28 68Q52 82 80 91T138 107L71 69L353 405L485 400L217 69L213 99L326 70L321 0H23ZM440 0L446 70Q467 80 495 89T553 105L546 80L349 346L506 414L765 63L692 99L816 70L811 0H440ZM407 755L401 681Q380 671 352
662T294 646L303 675L500 408L343 340L84 692L157 652L33 681L38 755H407ZM802 755L797 683Q773 669 745 660T687 644L754 686L472 349L340 354L608 686L614 652L501 681L506 755H802Z" />
<glyph unicode="y" horiz-adv-x="837" d="M364 -354Q268 -342 192 -304L373 22L407 48L638 679L650 652L536 681L542 755H829L823 683Q803 669 775 660T718 644L769 678L364 -354ZM359 -64L75 680L128 652L4 681L9 755H372L366 681Q345 671 317 662T259 646L274
671L484 63L476 -1L359 -64Z" />
<glyph unicode="z" horiz-adv-x="727" d="M30 0L37 80L518 755H680L674 675L192 0H30ZM30 0L144 91H645L658 0H30ZM85 663L78 755H680L567 663H85ZM57 514Q50 637 78 755L226 686L141 514H57ZM658 0L513 83L603 265H681Q687 139 658 0Z" />
<glyph unicode="{" horiz-adv-x="483" d="M409 -235Q284 -226 217 -162T150 14Q150 65 161 106T183 188T195 276Q195 349 160 394T51 464Q47 505 55 542Q125 570 160 614T195 723Q195 766 184 802T161 879T150 977Q150 1101 217 1173T409 1254L440 1196Q308 1153
308 1004Q308 954 318 918T340 843T351 745Q351 544 173 503V522Q351 481 351 298Q351 244 340 206T319 129T308 33Q308 -134 440 -177L409 -235Z" />
<glyph unicode="|" horiz-adv-x="519" d="M198 -258V1248H321V-258H198Z" />
<glyph unicode="}" horiz-adv-x="483" d="M74 1254Q199 1245 266 1181T333 1005Q333 954 322 913T300 831T288 743Q288 670 323 625T432 555Q436 514 428 477Q358 449 323 405T288 296Q288 253 299 217T322 140T333 42Q333 -82 266 -154T74 -235L43 -177Q175 -134
175 15Q175 65 165 101T143 176T132 274Q132 475 310 516V497Q132 538 132 721Q132 775 143 813T164 890T175 986Q175 1153 43 1196L74 1254Z" />
<glyph unicode="~" horiz-adv-x="802" d="M130 377L63 421Q134 595 271 595Q329 595 374 573T459 528T539 505Q612 505 672 601L739 558Q668 383 531 383Q473 383 428 405T343 450T263 473Q190 473 130 377Z" />
<glyph unicode="&#xa0;" horiz-adv-x="327" />
<glyph unicode="&#xa1;" horiz-adv-x="417" d="M263 428L318 -195V-234Q273 -241 219 -242T109 -240V-195L164 428H263ZM213 769Q267 769 299 739T332 655Q332 602 300 572T213 541Q159 541 127 571T95 655Q95 708 127 738T213 769Z" />
<glyph unicode="&#xa2;" horiz-adv-x="737" d="M433 -7Q260 -7 167 86T73 351Q73 531 169 636T429 742Q550 742 645 688Q654 649 657 601T658 501H572L494 666L570 597Q492 643 419 643Q344 643 305 580T265 394Q265 252 321 185T495 117Q587 117 681 153L674
52Q579 -7 433 -7ZM350 -166L424 902H502L428 -166H350Z" />
<glyph unicode="&#xa3;" horiz-adv-x="973" d="M89 0L96 93Q156 149 180 207T205 351Q205 410 198 447T183 521T175 608Q175 782 279 884T562 986Q627 986 693 972T811 929Q819 875 822 816T822 703H740L647 911L735 836Q635 884 546 884Q372 884 372 653Q372
567 387 507T402 374Q402 261 341 178T127 0H89ZM119 0L185 103H838L850 0H119ZM850 0L681 60L822 321H893Q893 239 882 156T850 0ZM71 522H679L671 435H64L71 522Z" />
<glyph unicode="&#xa4;" horiz-adv-x="795" d="M401 198Q265 198 183 278T100 491Q100 623 182 703T401 784Q537 784 619 704T701 491Q701 359 619 279T401 198ZM691 120L542 283L610 343L759 180L691 120ZM415 319Q562 319 562 476Q562 561 515 612T387 664Q316
664 278 623T239 506Q239 421 287 370T415 319ZM192 639L43 802L110 862L259 699L192 639ZM691 862L759 802L610 639L542 699L691 862ZM192 343L259 283L110 120L43 180L192 343Z" />
<glyph unicode="&#xa5;" horiz-adv-x="932" d="M361 416L100 899L150 873L26 898L31 969H412L407 897Q386 887 355 879T285 864L296 889L529 429L573 421L361 416ZM258 0L264 69Q323 92 400 104L375 26V165H559V26L536 98L679 71L674 0H258ZM375 14V440H559V14H375ZM441
389L702 899L712 871L582 898L587 969H899L894 900Q872 888 843 879T780 863L832 899L573 421L441 389ZM155 404L160 482H779L774 404H155ZM155 228L160 307H779L774 228H155Z" />
<glyph unicode="&#xa6;" horiz-adv-x="519" d="M198 625V1248H321V625H198ZM198 365H321V-258H198V365Z" />
<glyph unicode="&#xa7;" horiz-adv-x="743" d="M346 -226Q277 -226 217 -210T108 -166Q87 -33 98 71H180L291 -180L197 -80Q273 -129 362 -129L426 -145Q497 -119 525 -78T553 40Q553 136 520 216T439 367T342 505T260 639T227 781Q227 827 244 855T302 906L407
985Q517 985 615 941Q623 894 625 841T625 735H538L447 939L556 840Q470 887 391 887Q329 887 329 831Q329 785 362 729T446 606T545 459T629 287T663 86Q663 -72 577 -149T346 -226ZM346 -226L362 -129Q412 -129 412 -75Q412 -28 379 28T295 152T196 299T113 471T79
671Q79 831 167 908T407 985L387 887L318 904Q246 877 217 836T188 717Q188 622 221 543T302 392T399 254T481 119T514 -23Q514 -70 498 -98T443 -148L346 -226Z" />
<glyph unicode="&#xa8;" horiz-adv-x="800" d="M241 878Q193 878 165 906T137 981Q137 1028 165 1056T241 1084Q289 1084 317 1056T345 981Q345 934 317 906T241 878ZM559 878Q511 878 483 906T455 981Q455 1028 483 1056T559 1084Q607 1084 635 1056T663 981Q663
934 635 906T559 878Z" />
<glyph unicode="&#xa9;" horiz-adv-x="1576" d="M815 115Q650 115 562 203T473 456Q473 627 564 727T811 828Q924 828 1015 776Q1023 739 1026 694T1027 600H946L869 756L944 690Q909 712 871 723T801 735Q731 735 694 674T656 496Q656 232 873 232Q960 232 1049
266L1042 170Q949 115 815 115ZM786 -225Q570 -225 411 -139T166 106T79 481Q79 699 166 858T413 1105T791 1193Q1007 1193 1165 1107T1410 861T1497 486Q1497 269 1410 110T1163 -137T786 -225ZM790 -113Q1062 -113 1211 42T1360 482Q1360 769 1210 925T786 1081Q513
1081 364 926T215 485Q215 199 365 43T790 -113Z" />
<glyph unicode="&#xaa;" horiz-adv-x="547" d="M315 577Q315 627 316 678T318 776V828Q318 913 234 913Q179 913 129 878L68 823Q65 883 75 936Q171 986 285 986Q457 986 457 852Q457 829 456 776T454 669T453 591L315 577ZM68 823L75 893L196 926L137 823H68ZM182
503Q115 503 75 538T35 632Q35 755 235 795L352 817L362 753L268 743Q179 733 179 662Q179 589 246 589Q292 589 361 634L373 600Q290 503 182 503ZM352 509L322 596L453 626V549L431 589L511 568L506 517Q449 509 352 509Z" />
<glyph unicode="&#xab;" horiz-adv-x="840" d="M204 364L60 372Q58 389 59 405T64 434L373 746L445 689L204 364ZM373 56L60 372L204 437L445 113L373 56ZM537 364L393 372Q391 389 392 405T397 434L706 746L778 689L537 364ZM706 56L393 372L537 437L778 113L706 56Z" />
<glyph unicode="&#xac;" horiz-adv-x="802" d="M85 575V692H717V575H85ZM600 263V653H717V263H600Z" />
<glyph unicode="&#xad;" horiz-adv-x="603" d="M86 386V521H526V386H86Z" />
<glyph unicode="&#xae;" horiz-adv-x="1156" d="M575 293Q424 293 313 353T140 525T79 789Q79 942 141 1054T315 1228T580 1290Q732 1290 843 1229T1015 1057T1076 794Q1076 641 1015 529T841 355T575 293ZM579 388Q761 388 860 493T959 790Q959 984 859 1089T575
1195Q394 1195 295 1090T196 793Q196 600 296 494T579 388ZM696 542L539 747L649 769L804 585L762 603L829 589L827 542H696ZM557 732Q507 732 450 738L457 805Q514 799 566 799Q655 799 655 888Q655 979 570 979H460V1041H574Q672 1041 724 1004T777 899Q777 837
738 795T633 744L592 734Q584 733 575 733T557 732ZM411 552V1032H525V552H411ZM567 1041L565 997Q552 992 541 987T511 978L525 1025V945H411V1025L423 982L360 996L363 1041H567ZM362 542L365 586Q378 591 392 596T424 606L411 566V638H525V566L513 602L575 587L573
542H362Z" />
<glyph unicode="&#xaf;" horiz-adv-x="800" d="M157 1022H643V908H157V1022Z" />
<glyph unicode="&#xb0;" horiz-adv-x="627" d="M314 555Q202 555 133 623T63 800Q63 909 132 977T314 1045Q425 1045 494 977T564 800Q564 691 495 623T314 555ZM325 665Q439 665 439 788Q439 855 402 895T303 935Q188 935 188 812Q188 745 225 705T325 665Z" />
<glyph unicode="&#xb1;" horiz-adv-x="802" d="M85 566V683H717V566H85ZM85 93V209H717V93H85ZM343 311V938H459V311H343Z" />
<glyph unicode="&#xb2;" horiz-adv-x="524" d="M21 568L27 631L127 726Q200 795 240 839T295 916T311 982Q311 1060 229 1060Q173 1060 124 1028L44 933Q43 968 46 1010T57 1079Q147 1134 269 1134Q364 1134 415 1097T466 988Q466 944 444 899T370 795T222 654L123
568H21ZM21 568L117 636H473L472 568H21ZM472 568L363 616L426 725H487Q490 650 472 568ZM44 933L57 1061L193 1073L112 933H44Z" />
<glyph unicode="&#xb3;" horiz-adv-x="521" d="M247 558Q122 558 47 618Q39 646 36 683T34 762L113 670Q163 632 240 632Q327 632 327 719Q327 818 236 818H187L193 894L241 890Q357 890 419 849T482 731Q482 652 419 605T247 558ZM182 622L56 647L34 762H101L182
622ZM54 938L69 1044L203 1078L122 938H54ZM226 836L193 894H232Q310 894 310 974Q310 1060 231 1060Q179 1060 127 1028L54 938Q53 980 56 1017T67 1083Q110 1106 165 1120T272 1134Q359 1134 410 1096T461 992Q461 921 398 879T226 836Z" />
<glyph unicode="&#xb4;" horiz-adv-x="800" d="M322 833L252 874L449 1156Q544 1153 621 1114L618 1078L322 833Z" />
<glyph unicode="&#xb5;" horiz-adv-x="870" d="M726 146L552 143V751Q631 765 736 765Q731 679 729 550T726 249V146ZM573 157L726 179Q726 142 751 122T840 91L834 18Q776 -3 720 -3Q651 -3 618 32T573 157ZM99 751Q178 765 283 765L254 308Q254 168 259 7T273
-316Q194 -331 89 -330Q94 -244 96 -119T99 177V751ZM370 -13Q179 -13 179 217V724L283 765Q278 679 276 550T273 249Q273 180 301 149T393 117Q473 117 520 163T575 296L610 241Q599 119 537 53T370 -13Z" />
<glyph unicode="&#xb6;" horiz-adv-x="916" d="M349 417Q212 417 132 494T51 703Q51 834 133 912T354 990H514V429Q467 423 428 420T349 417ZM636 -210V976H771V-210H636ZM446 884V990H723V884H446ZM394 -210V990H528V-210H394ZM879 990L873 922Q847 911 816 902T746
883L771 965V821H658V990H879Z" />
<glyph unicode="&#xb7;" horiz-adv-x="403" d="M206 411Q151 411 119 442T86 527Q86 581 118 612T206 643Q260 643 292 612T325 527Q325 474 293 443T206 411Z" />
<glyph unicode="&#xb8;" horiz-adv-x="800" d="M276 -366L255 -294Q272 -293 286 -291T311 -287Q347 -280 371 -258T395 -204Q395 -164 354 -164Q334 -164 313 -171L282 -115L306 -102Q332 -91 358 -86T408 -80Q467 -80 502 -109T537 -187Q537 -250 479 -297T321
-361Q300 -364 276 -366ZM311 -118L310 3L384 60L376 -62L311 -118Z" />
<glyph unicode="&#xb9;" horiz-adv-x="440" d="M162 576V1071L306 1124V576H162ZM180 1011L52 1027L50 1074Q97 1094 152 1109T264 1131H306V1051L180 1011ZM59 568L63 620Q90 626 121 630T185 639L162 582V673H306V582L286 635L405 621L401 568H59Z" />
<glyph unicode="&#xba;" horiz-adv-x="579" d="M289 501Q172 501 104 566T35 743Q35 855 104 921T291 987Q407 987 475 921T544 745Q544 633 475 567T289 501ZM299 576Q389 576 389 728Q389 816 361 863T280 911Q190 911 190 760Q190 671 218 624T299 576Z" />
<glyph unicode="&#xbb;" horiz-adv-x="840" d="M636 438L780 430Q782 413 781 397T776 368L467 56L395 113L636 438ZM467 746L780 430L636 365L395 689L467 746ZM303 438L447 430Q449 413 448 397T443 368L134 56L62 113L303 438ZM134 746L447 430L303 365L62
689L134 746Z" />
<glyph unicode="&#xbc;" horiz-adv-x="1137" d="M145 500V943L279 990V500H145ZM162 886L47 901L45 945Q88 963 138 977T240 996H279V925L162 886ZM53 492L56 540Q81 545 109 549T167 557L145 505V587H279V505L260 553L368 541L364 492H53ZM166 -5L794 990Q859
1000 930 995L302 0Q237 -10 166 -5ZM720 153L652 172L902 498H975L720 153ZM646 115L652 172L711 178H1118L1114 115H646ZM893 0V445L902 498H1024V0H893ZM834 0L838 48Q853 54 873 58T914 66L893 13V95H1024V13L1004 62L1085 49L1081 0H834Z" />
<glyph unicode="&#xbd;" horiz-adv-x="1173" d="M145 500V943L279 990V500H145ZM162 886L47 901L45 945Q88 963 138 977T240 996H279V925L162 886ZM53 492L56 540Q81 545 109 549T167 557L145 505V587H279V505L260 553L368 541L364 492H53ZM166 -5L794 990Q859
1000 930 995L302 0Q237 -10 166 -5ZM715 0L720 58L810 143Q876 205 912 244T962 312T977 371Q977 439 904 439Q855 439 810 410L736 325Q735 356 738 395T748 458Q830 507 941 507Q1028 507 1074 474T1121 377Q1121 336 1102 295T1034 202T899 75L811 0H715ZM715
0L804 62H1127V0H715ZM1126 0L1026 45L1083 142H1140Q1141 110 1138 73T1126 0ZM736 325L748 442L872 450L799 325H736Z" />
<glyph unicode="&#xbe;" horiz-adv-x="1208" d="M225 484Q109 484 43 537Q28 588 31 668L104 586Q149 552 218 552Q295 552 295 628Q295 715 214 715H170L175 785L220 781Q326 781 383 744T440 638Q440 567 382 526T225 484ZM166 543L51 565L31 668H92L166 543ZM49
822L62 916L185 947L112 822H49ZM206 733L175 785H211Q280 785 280 855Q280 931 211 931Q163 931 117 902L49 822Q47 860 50 894T61 954Q100 975 150 987T248 999Q327 999 374 965T421 872Q421 808 363 771T206 733ZM237 -5L865 990Q930 1000 1001 995L373 0Q308
-10 237 -5ZM792 153L724 172L974 498H1047L792 153ZM718 115L724 172L783 178H1190L1186 115H718ZM965 0V445L974 498H1096V0H965ZM906 0L910 48Q925 54 945 58T986 66L965 13V95H1096V13L1076 62L1157 49L1153 0H906Z" />
<glyph unicode="&#xbf;" horiz-adv-x="689" d="M440 428L455 266L417 241Q316 174 279 125T242 6Q242 -149 385 -149Q474 -149 553 -91L649 68Q651 3 646 -56T628 -163Q565 -205 483 -228T319 -252Q189 -252 114 -190T39 -20Q39 42 68 97T166 212T352 344L373
357L330 312L341 428H440ZM649 68L626 -130L432 -181L557 68H649ZM390 769Q444 769 476 739T508 655Q508 602 476 572T390 541Q336 541 304 571T271 655Q271 708 303 738T390 769Z" />
<glyph unicode="&#xc0;" horiz-adv-x="1014" d="M602 996L927 73L879 101L1008 74L1003 0H614L620 76Q667 97 737 111L722 83L446 927L410 991Q451 996 502 997T602 996ZM526 990L223 73L210 102L334 74L329 0H13L18 72Q41 84 72 93T138 110L87 73L410 991L526
990ZM234 276L267 381H711L745 276H234ZM654 1074L285 1205L282 1242Q335 1298 423 1334L706 1137L654 1074Z" />
<glyph unicode="&#xc1;" horiz-adv-x="1014" d="M602 996L927 73L879 101L1008 74L1003 0H614L620 76Q667 97 737 111L722 83L446 927L410 991Q451 996 502 997T602 996ZM526 990L223 73L210 102L334 74L329 0H13L18 72Q41 84 72 93T138 110L87 73L410 991L526
990ZM234 276L267 381H711L745 276H234ZM352 1074L300 1137L593 1334Q681 1298 734 1242L731 1205L352 1074Z" />
<glyph unicode="&#xc2;" horiz-adv-x="1014" d="M602 996L927 73L879 101L1008 74L1003 0H614L620 76Q667 97 737 111L722 83L446 927L410 991Q451 996 502 997T602 996ZM526 990L223 73L210 102L334 74L329 0H13L18 72Q41 84 72 93T138 110L87 73L410 991L526
990ZM234 276L267 381H711L745 276H234ZM574 1338L807 1122L753 1059L445 1235L574 1338ZM574 1338L558 1236L260 1052L205 1113L434 1333Q468 1338 501 1339T574 1338Z" />
<glyph unicode="&#xc3;" horiz-adv-x="1014" d="M602 996L927 73L879 101L1008 74L1003 0H614L620 76Q667 97 737 111L722 83L446 927L410 991Q451 996 502 997T602 996ZM526 990L223 73L210 102L334 74L329 0H13L18 72Q41 84 72 93T138 110L87 73L410 991L526
990ZM234 276L267 381H711L745 276H234ZM290 1073L223 1116Q299 1299 423 1299Q475 1299 507 1276T562 1229T616 1205Q667 1205 726 1305L793 1261Q717 1079 593 1079Q541 1079 509 1102T454 1149T400 1173Q349 1173 290 1073Z" />
<glyph unicode="&#xc4;" horiz-adv-x="1014" d="M602 996L927 73L879 101L1008 74L1003 0H614L620 76Q667 97 737 111L722 83L446 927L410 991Q451 996 502 997T602 996ZM526 990L223 73L210 102L334 74L329 0H13L18 72Q41 84 72 93T138 110L87 73L410 991L526
990ZM234 276L267 381H711L745 276H234ZM339 1097Q291 1097 263 1125T235 1200Q235 1247 263 1275T339 1303Q387 1303 415 1275T443 1200Q443 1153 415 1125T339 1097ZM677 1097Q629 1097 601 1125T573 1200Q573 1247 601 1275T677 1303Q725 1303 753 1275T781
1200Q781 1153 753 1125T677 1097Z" />
<glyph unicode="&#xc5;" horiz-adv-x="1014" d="M602 996L927 73L879 101L1008 74L1003 0H614L620 76Q667 97 737 111L722 83L446 927L410 991Q451 996 502 997T602 996ZM526 990L223 73L210 102L334 74L329 0H13L18 72Q41 84 72 93T138 110L87 73L410 991L526
990ZM234 276L267 381H711L745 276H234ZM508 1068Q422 1068 371 1116T320 1246Q320 1328 371 1376T508 1424Q594 1424 645 1376T696 1246Q696 1164 645 1116T508 1068ZM516 1156Q592 1156 592 1237Q592 1282 567 1309T500 1336Q424 1336 424 1254Q424 1209 449
1183T516 1156Z" />
<glyph unicode="&#xc6;" horiz-adv-x="1379" d="M-7 0L-2 72Q21 84 52 93T118 110L60 72L579 990H707L207 69L202 102L326 74L321 0H-7ZM547 0L553 72Q604 93 679 111L653 27V173H843V27L820 103L953 74L948 0H547ZM254 295L297 402H740V295H254ZM702 0V110H1264L1288
0H702ZM653 15V976H843V15H653ZM1288 0L1117 63L1243 295H1330Q1332 237 1321 157T1288 0ZM736 450V566H1148L1139 450H736ZM547 888L389 916L394 990H622L547 888ZM679 880L581 883L643 990H1277L1258 880H679ZM1207 713L1114 923L1277 990Q1291 921 1295 849T1296
713H1207Z" />
<glyph unicode="&#xc7;" horiz-adv-x="964" d="M590 -17Q334 -17 197 110T59 474Q59 637 123 756T303 941T580 1007Q662 1007 740 990T869 944Q888 819 880 697H797L698 921L790 846Q683 901 562 901Q278 901 278 510Q278 89 608 89Q733 89 836 145L830 77H694L820
309H907Q909 186 874 47Q823 17 747 0T590 -17ZM432 -366L410 -292Q427 -291 442 -289T468 -285Q506 -277 529 -255T553 -204Q553 -166 512 -166Q492 -166 471 -173L439 -115L464 -102Q490 -91 516 -86T566 -80Q625 -80 661 -109T697 -187Q697 -250 638 -297T479
-361Q459 -364 432 -366ZM439 -115L480 60H583L511 -123L439 -115Z" />
<glyph unicode="&#xc8;" horiz-adv-x="918" d="M161 15V976H353V15H161ZM260 0V110H803L827 0H260ZM827 0L656 63L782 295H869Q871 237 860 157T827 0ZM244 449V567H687L678 449H244ZM202 880V990H816L797 880H202ZM746 713L653 923L816 990Q831 921 835 849T835
713H746ZM55 0L60 72Q111 93 187 111L161 27V173H353V27L330 103L463 74L457 0H55ZM459 990L453 918Q402 897 327 879L353 963V817H161V963L184 887L51 916L56 990H459ZM619 1074L250 1205L247 1242Q300 1298 388 1334L671 1137L619 1074Z" />
<glyph unicode="&#xc9;" horiz-adv-x="918" d="M161 15V976H353V15H161ZM260 0V110H803L827 0H260ZM827 0L656 63L782 295H869Q871 237 860 157T827 0ZM244 449V567H687L678 449H244ZM202 880V990H816L797 880H202ZM746 713L653 923L816 990Q831 921 835 849T835
713H746ZM55 0L60 72Q111 93 187 111L161 27V173H353V27L330 103L463 74L457 0H55ZM459 990L453 918Q402 897 327 879L353 963V817H161V963L184 887L51 916L56 990H459ZM317 1074L265 1137L558 1334Q646 1298 699 1242L696 1205L317 1074Z" />
<glyph unicode="&#xca;" horiz-adv-x="918" d="M161 15V976H353V15H161ZM260 0V110H803L827 0H260ZM827 0L656 63L782 295H869Q871 237 860 157T827 0ZM244 449V567H687L678 449H244ZM202 880V990H816L797 880H202ZM746 713L653 923L816 990Q831 921 835 849T835
713H746ZM55 0L60 72Q111 93 187 111L161 27V173H353V27L330 103L463 74L457 0H55ZM459 990L453 918Q402 897 327 879L353 963V817H161V963L184 887L51 916L56 990H459ZM539 1338L772 1122L718 1059L410 1235L539 1338ZM539 1338L523 1236L225 1052L170 1113L399
1333Q433 1338 466 1339T539 1338Z" />
<glyph unicode="&#xcb;" horiz-adv-x="918" d="M161 15V976H353V15H161ZM260 0V110H803L827 0H260ZM827 0L656 63L782 295H869Q871 237 860 157T827 0ZM244 449V567H687L678 449H244ZM202 880V990H816L797 880H202ZM746 713L653 923L816 990Q831 921 835 849T835
713H746ZM55 0L60 72Q111 93 187 111L161 27V173H353V27L330 103L463 74L457 0H55ZM459 990L453 918Q402 897 327 879L353 963V817H161V963L184 887L51 916L56 990H459ZM304 1097Q256 1097 228 1125T200 1200Q200 1247 228 1275T304 1303Q352 1303 380 1275T408
1200Q408 1153 380 1125T304 1097ZM642 1097Q594 1097 566 1125T538 1200Q538 1247 566 1275T642 1303Q690 1303 718 1275T746 1200Q746 1153 718 1125T642 1097Z" />
<glyph unicode="&#xcc;" horiz-adv-x="517" d="M163 15V976H355V15H163ZM57 0L62 72Q113 93 189 111L163 27V173H355V27L332 103L465 74L459 0H57ZM461 990L455 918Q404 897 329 879L355 963V817H163V963L186 887L53 916L58 990H461ZM405 1074L36 1205L33 1242Q86
1298 174 1334L457 1137L405 1074Z" />
<glyph unicode="&#xcd;" horiz-adv-x="517" d="M163 15V976H355V15H163ZM57 0L62 72Q113 93 189 111L163 27V173H355V27L332 103L465 74L459 0H57ZM461 990L455 918Q404 897 329 879L355 963V817H163V963L186 887L53 916L58 990H461ZM103 1074L51 1137L344 1334Q432
1298 485 1242L482 1205L103 1074Z" />
<glyph unicode="&#xce;" horiz-adv-x="517" d="M163 15V976H355V15H163ZM57 0L62 72Q113 93 189 111L163 27V173H355V27L332 103L465 74L459 0H57ZM461 990L455 918Q404 897 329 879L355 963V817H163V963L186 887L53 916L58 990H461ZM325 1338L558 1122L504 1059L196
1235L325 1338ZM325 1338L309 1236L11 1052L-44 1113L185 1333Q219 1338 252 1339T325 1338Z" />
<glyph unicode="&#xcf;" horiz-adv-x="517" d="M163 15V976H355V15H163ZM57 0L62 72Q113 93 189 111L163 27V173H355V27L332 103L465 74L459 0H57ZM461 990L455 918Q404 897 329 879L355 963V817H163V963L186 887L53 916L58 990H461ZM112 1097Q64 1097 36 1125T8
1200Q8 1247 36 1275T112 1303Q160 1303 188 1275T216 1200Q216 1153 188 1125T112 1097ZM406 1097Q358 1097 330 1125T302 1200Q302 1247 330 1275T406 1303Q454 1303 482 1275T510 1200Q510 1153 482 1125T406 1097Z" />
<glyph unicode="&#xd0;" horiz-adv-x="1047" d="M261 0V110H503Q633 110 703 209T773 495Q773 880 450 880H261V990H459Q715 990 853 866T991 512Q991 356 929 241T753 63T483 0H261ZM161 15V976H353V15H161ZM55 0L60 72Q111 93 187 111L161 27V173H353V27L330
103L463 74L457 0H55ZM459 990L453 918Q402 897 327 879L353 963V817H161V963L184 887L51 916L56 990H459ZM49 550H569V464H49V550Z" />
<glyph unicode="&#xd1;" horiz-adv-x="1081" d="M814 -6L170 860L292 990L936 122L945 -1Q888 -12 814 -6ZM161 15V976L299 917V15H161ZM300 818L184 869L51 916L56 990H292L300 818ZM945 -1L807 57V976H945V-1ZM55 0L61 72Q112 93 187 111L161 27V173H299V27L274
103L423 74L417 0H55ZM1045 990L1039 918Q983 893 918 879L945 963V817H807V963L830 887L697 916L703 990H1045ZM332 1073L265 1116Q341 1299 465 1299Q517 1299 549 1276T604 1229T658 1205Q709 1205 768 1305L835 1261Q759 1079 635 1079Q583 1079 551 1102T496
1149T442 1173Q391 1173 332 1073Z" />
<glyph unicode="&#xd2;" horiz-adv-x="1082" d="M540 -18Q393 -18 285 45T118 223T59 494Q59 651 118 766T285 945T541 1008Q688 1008 796 945T964 767T1023 496Q1023 339 964 224T797 45T540 -18ZM566 90Q804 90 804 457Q804 671 730 785T516 900Q278 900 278
533Q278 319 352 205T566 90ZM687 1074L318 1205L315 1242Q368 1298 456 1334L739 1137L687 1074Z" />
<glyph unicode="&#xd3;" horiz-adv-x="1082" d="M540 -18Q393 -18 285 45T118 223T59 494Q59 651 118 766T285 945T541 1008Q688 1008 796 945T964 767T1023 496Q1023 339 964 224T797 45T540 -18ZM566 90Q804 90 804 457Q804 671 730 785T516 900Q278 900 278
533Q278 319 352 205T566 90ZM385 1074L333 1137L626 1334Q714 1298 767 1242L764 1205L385 1074Z" />
<glyph unicode="&#xd4;" horiz-adv-x="1082" d="M540 -18Q393 -18 285 45T118 223T59 494Q59 651 118 766T285 945T541 1008Q688 1008 796 945T964 767T1023 496Q1023 339 964 224T797 45T540 -18ZM566 90Q804 90 804 457Q804 671 730 785T516 900Q278 900 278
533Q278 319 352 205T566 90ZM607 1338L840 1122L786 1059L478 1235L607 1338ZM607 1338L591 1236L293 1052L238 1113L467 1333Q501 1338 534 1339T607 1338Z" />
<glyph unicode="&#xd5;" horiz-adv-x="1082" d="M540 -18Q393 -18 285 45T118 223T59 494Q59 651 118 766T285 945T541 1008Q688 1008 796 945T964 767T1023 496Q1023 339 964 224T797 45T540 -18ZM566 90Q804 90 804 457Q804 671 730 785T516 900Q278 900 278
533Q278 319 352 205T566 90ZM323 1073L256 1116Q332 1299 456 1299Q508 1299 540 1276T595 1229T649 1205Q700 1205 759 1305L826 1261Q750 1079 626 1079Q574 1079 542 1102T487 1149T433 1173Q382 1173 323 1073Z" />
<glyph unicode="&#xd6;" horiz-adv-x="1082" d="M540 -18Q393 -18 285 45T118 223T59 494Q59 651 118 766T285 945T541 1008Q688 1008 796 945T964 767T1023 496Q1023 339 964 224T797 45T540 -18ZM566 90Q804 90 804 457Q804 671 730 785T516 900Q278 900 278
533Q278 319 352 205T566 90ZM372 1097Q324 1097 296 1125T268 1200Q268 1247 296 1275T372 1303Q420 1303 448 1275T476 1200Q476 1153 448 1125T372 1097ZM710 1097Q662 1097 634 1125T606 1200Q606 1247 634 1275T710 1303Q758 1303 786 1275T814 1200Q814 1153
786 1125T710 1097Z" />
<glyph unicode="&#xd7;" horiz-adv-x="802" d="M191 191L694 695L611 777L108 274L191 191ZM611 191L694 274L191 777L108 695L611 191Z" />
<glyph unicode="&#xd8;" horiz-adv-x="1082" d="M540 -18Q394 -18 286 45T119 223T59 494Q59 651 118 766T285 945T541 1008Q687 1008 795 945T963 767T1023 496Q1023 339 964 224T797 45T540 -18ZM566 90Q805 90 805 457Q805 671 730 785T516 900Q277 900 277
533Q277 318 352 204T566 90ZM167 -60L90 1L915 1050L992 989L167 -60Z" />
<glyph unicode="&#xd9;" horiz-adv-x="1037" d="M521 -17Q345 -17 241 66T137 289L333 313Q333 218 388 166T547 114Q650 114 706 166T762 313L905 289Q905 149 801 66T521 -17ZM137 289V976H333V313L137 289ZM137 817V963L158 887L37 916L42 990H453L447 918Q425
910 389 900T305 880L333 963V817H137ZM905 289L762 313V976H905V289ZM762 817V963L786 887L638 916L644 990H1001L995 918Q952 897 879 879L905 963V817H762ZM688 1074L319 1205L316 1242Q369 1298 457 1334L740 1137L688 1074Z" />
<glyph unicode="&#xda;" horiz-adv-x="1037" d="M521 -17Q345 -17 241 66T137 289L333 313Q333 218 388 166T547 114Q650 114 706 166T762 313L905 289Q905 149 801 66T521 -17ZM137 289V976H333V313L137 289ZM137 817V963L158 887L37 916L42 990H453L447 918Q425
910 389 900T305 880L333 963V817H137ZM905 289L762 313V976H905V289ZM762 817V963L786 887L638 916L644 990H1001L995 918Q952 897 879 879L905 963V817H762ZM386 1074L334 1137L627 1334Q715 1298 768 1242L765 1205L386 1074Z" />
<glyph unicode="&#xdb;" horiz-adv-x="1037" d="M521 -17Q345 -17 241 66T137 289L333 313Q333 218 388 166T547 114Q650 114 706 166T762 313L905 289Q905 149 801 66T521 -17ZM137 289V976H333V313L137 289ZM137 817V963L158 887L37 916L42 990H453L447 918Q425
910 389 900T305 880L333 963V817H137ZM905 289L762 313V976H905V289ZM762 817V963L786 887L638 916L644 990H1001L995 918Q952 897 879 879L905 963V817H762ZM608 1338L841 1122L787 1059L479 1235L608 1338ZM608 1338L592 1236L294 1052L239 1113L468 1333Q502
1338 535 1339T608 1338Z" />
<glyph unicode="&#xdc;" horiz-adv-x="1037" d="M521 -17Q345 -17 241 66T137 289L333 313Q333 218 388 166T547 114Q650 114 706 166T762 313L905 289Q905 149 801 66T521 -17ZM137 289V976H333V313L137 289ZM137 817V963L158 887L37 916L42 990H453L447 918Q425
910 389 900T305 880L333 963V817H137ZM905 289L762 313V976H905V289ZM762 817V963L786 887L638 916L644 990H1001L995 918Q952 897 879 879L905 963V817H762ZM373 1097Q325 1097 297 1125T269 1200Q269 1247 297 1275T373 1303Q421 1303 449 1275T477 1200Q477
1153 449 1125T373 1097ZM711 1097Q663 1097 635 1125T607 1200Q607 1247 635 1275T711 1303Q759 1303 787 1275T815 1200Q815 1153 787 1125T711 1097Z" />
<glyph unicode="&#xdd;" horiz-adv-x="946" d="M382 337L83 917L135 889L6 916L11 990H410L404 916Q360 897 277 882L288 907L539 406L566 342L382 337ZM447 343L727 917L738 888L602 916L607 990H933L928 918Q905 906 874 897T808 880L863 917L566 342L447 343ZM378
15V407H570V15H378ZM256 0L262 72Q291 83 328 92T404 109L378 27V173H570V27L546 103L696 74L690 0H256ZM339 1074L287 1137L580 1334Q668 1298 721 1242L718 1205L339 1074Z" />
<glyph unicode="&#xde;" horiz-adv-x="884" d="M444 193Q344 193 230 205L245 309Q357 297 462 297Q656 297 656 497Q656 693 470 693H223V803H479Q667 803 767 730T868 519Q868 370 753 282T444 193ZM55 0L60 72Q84 84 114 94T177 110L151 27V173H340V27L314
103L471 74L465 0H55ZM151 15V976H340V15H151ZM151 817V963L173 887L51 916L56 990H467L461 918Q400 897 311 880L340 963V811L151 817Z" />
<glyph unicode="&#xdf;" horiz-adv-x="957" d="M602 -16Q497 -16 415 22Q406 62 402 114T401 219H485L570 47L477 116Q544 81 618 81Q731 81 731 182Q731 238 703 272T633 331T550 384T480 455T451 568Q451 633 473 669T524 733T575 798T597 901Q597 1032 483
1032Q400 1032 356 970T312 792V6H128V722Q128 912 230 1024T504 1136Q628 1136 701 1079T774 925Q774 866 751 827T696 756T642 694T618 621Q618 575 647 547T718 495T802 441T873 362T902 234Q902 113 825 49T602 -16ZM32 0L37 68Q66 82 95 91T153 107L128 26V169H312V0H32Z"
/>
<glyph unicode="&#xe0;" horiz-adv-x="784" d="M465 108Q465 191 467 277T469 440V527Q469 669 336 669Q249 669 172 611L95 527Q92 618 106 694Q245 772 405 772Q651 772 651 548Q651 519 650 463T648 341T646 219T645 132L465 108ZM95 527L108 642L275 699L190
527H95ZM262 -15Q164 -15 106 41T48 191Q48 392 343 454L513 489L525 397L382 379Q305 369 271 336T236 236Q236 107 344 107Q420 107 525 182L543 139Q420 -15 262 -15ZM512 -4L473 131L645 177V61L619 110L739 75L734 8Q649 -6 512 -4ZM452 833L166 1078L163
1114Q240 1153 335 1156L522 874L452 833Z" />
<glyph unicode="&#xe1;" horiz-adv-x="784" d="M465 108Q465 191 467 277T469 440V527Q469 669 336 669Q249 669 172 611L95 527Q92 618 106 694Q245 772 405 772Q651 772 651 548Q651 519 650 463T648 341T646 219T645 132L465 108ZM95 527L108 642L275 699L190
527H95ZM262 -15Q164 -15 106 41T48 191Q48 392 343 454L513 489L525 397L382 379Q305 369 271 336T236 236Q236 107 344 107Q420 107 525 182L543 139Q420 -15 262 -15ZM512 -4L473 131L645 177V61L619 110L739 75L734 8Q649 -6 512 -4ZM286 833L216 874L413 1156Q508
1153 585 1114L582 1078L286 833Z" />
<glyph unicode="&#xe2;" horiz-adv-x="784" d="M465 108Q465 191 467 277T469 440V527Q469 669 336 669Q249 669 172 611L95 527Q92 618 106 694Q245 772 405 772Q651 772 651 548Q651 519 650 463T648 341T646 219T645 132L465 108ZM95 527L108 642L275 699L190
527H95ZM262 -15Q164 -15 106 41T48 191Q48 392 343 454L513 489L525 397L382 379Q305 369 271 336T236 236Q236 107 344 107Q420 107 525 182L543 139Q420 -15 262 -15ZM512 -4L473 131L645 177V61L619 110L739 75L734 8Q649 -6 512 -4ZM426 1141L620 888L557
836L286 1065L426 1141ZM426 1141V1065L166 831L104 879L294 1136Q328 1141 357 1142T426 1141Z" />
<glyph unicode="&#xe3;" horiz-adv-x="784" d="M465 108Q465 191 467 277T469 440V527Q469 669 336 669Q249 669 172 611L95 527Q92 618 106 694Q245 772 405 772Q651 772 651 548Q651 519 650 463T648 341T646 219T645 132L465 108ZM95 527L108 642L275 699L190
527H95ZM262 -15Q164 -15 106 41T48 191Q48 392 343 454L513 489L525 397L382 379Q305 369 271 336T236 236Q236 107 344 107Q420 107 525 182L543 139Q420 -15 262 -15ZM512 -4L473 131L645 177V61L619 110L739 75L734 8Q649 -6 512 -4ZM146 854L79 897Q155 1080
279 1080Q331 1080 363 1057T418 1010T472 986Q523 986 582 1086L649 1042Q573 860 449 860Q397 860 365 883T310 930T256 954Q205 954 146 854Z" />
<glyph unicode="&#xe4;" horiz-adv-x="784" d="M465 108Q465 191 467 277T469 440V527Q469 669 336 669Q249 669 172 611L95 527Q92 618 106 694Q245 772 405 772Q651 772 651 548Q651 519 650 463T648 341T646 219T645 132L465 108ZM95 527L108 642L275 699L190
527H95ZM262 -15Q164 -15 106 41T48 191Q48 392 343 454L513 489L525 397L382 379Q305 369 271 336T236 236Q236 107 344 107Q420 107 525 182L543 139Q420 -15 262 -15ZM512 -4L473 131L645 177V61L619 110L739 75L734 8Q649 -6 512 -4ZM205 878Q157 878 129 906T101
981Q101 1028 129 1056T205 1084Q253 1084 281 1056T309 981Q309 934 281 906T205 878ZM523 878Q475 878 447 906T419 981Q419 1028 447 1056T523 1084Q571 1084 599 1056T627 981Q627 934 599 906T523 878Z" />
<glyph unicode="&#xe5;" horiz-adv-x="784" d="M465 108Q465 191 467 277T469 440V527Q469 669 336 669Q249 669 172 611L95 527Q92 618 106 694Q245 772 405 772Q651 772 651 548Q651 519 650 463T648 341T646 219T645 132L465 108ZM95 527L108 642L275 699L190
527H95ZM262 -15Q164 -15 106 41T48 191Q48 392 343 454L513 489L525 397L382 379Q305 369 271 336T236 236Q236 107 344 107Q420 107 525 182L543 139Q420 -15 262 -15ZM512 -4L473 131L645 177V61L619 110L739 75L734 8Q649 -6 512 -4ZM364 847Q278 847 227 895T176
1025Q176 1107 227 1155T364 1203Q450 1203 501 1155T552 1025Q552 943 501 895T364 847ZM372 935Q448 935 448 1016Q448 1061 423 1088T356 1115Q280 1115 280 1033Q280 988 305 962T372 935Z" />
<glyph unicode="&#xe6;" horiz-adv-x="1156" d="M820 -16Q641 -16 545 76T448 340Q448 460 485 546L522 592Q555 679 626 726T798 773Q947 773 1026 680T1106 414Q1106 401 1106 388T1104 366L912 387Q912 538 880 604T775 671Q635 671 635 431Q635 113 883 113Q973
113 1083 154L1075 49Q1023 17 958 1T820 -16ZM452 326L453 440V527Q453 670 327 670Q248 670 171 612L95 527Q92 618 106 694Q172 731 247 751T395 772Q504 772 555 718T607 548V334L452 326ZM95 527L108 642L273 699L188 527H95ZM253 -15Q159 -15 104 41T48 191Q48
295 119 359T323 442L497 466L507 378L373 370Q299 365 267 334T234 236Q234 106 334 106Q414 106 514 190L561 143Q417 -15 253 -15ZM530 362V449L1088 453L1104 366L530 362Z" />
<glyph unicode="&#xe7;" horiz-adv-x="727" d="M431 -16Q249 -16 151 82T53 362Q53 550 154 661T427 773Q554 773 653 716Q662 674 666 624T667 521H577L491 693L574 621Q536 644 494 657T417 670Q340 670 298 602T256 406Q256 113 496 113Q592 113 691 150L683
45Q583 -16 431 -16ZM285 -366L264 -294Q281 -293 295 -291T320 -287Q356 -280 380 -258T404 -204Q404 -164 363 -164Q343 -164 322 -171L291 -115L315 -102Q341 -91 367 -86T417 -80Q476 -80 511 -109T546 -187Q546 -250 488 -297T330 -361Q309 -364 285 -366ZM320
-118L319 3L393 60L385 -62L320 -118Z" />
<glyph unicode="&#xe8;" horiz-adv-x="790" d="M444 -16Q256 -16 155 83T53 366Q53 553 153 663T422 773Q575 773 657 680T739 414Q739 399 738 382T735 350L544 387Q544 538 510 604T399 671Q251 671 251 430Q251 113 507 113Q607 113 716 154L708 49Q660 18
591 1T444 -16ZM132 350V439H719L735 350H132ZM490 833L204 1078L201 1114Q278 1153 373 1156L560 874L490 833Z" />
<glyph unicode="&#xe9;" horiz-adv-x="790" d="M444 -16Q256 -16 155 83T53 366Q53 553 153 663T422 773Q575 773 657 680T739 414Q739 399 738 382T735 350L544 387Q544 538 510 604T399 671Q251 671 251 430Q251 113 507 113Q607 113 716 154L708 49Q660 18
591 1T444 -16ZM132 350V439H719L735 350H132ZM324 833L254 874L451 1156Q546 1153 623 1114L620 1078L324 833Z" />
<glyph unicode="&#xea;" horiz-adv-x="790" d="M444 -16Q256 -16 155 83T53 366Q53 553 153 663T422 773Q575 773 657 680T739 414Q739 399 738 382T735 350L544 387Q544 538 510 604T399 671Q251 671 251 430Q251 113 507 113Q607 113 716 154L708 49Q660 18
591 1T444 -16ZM132 350V439H719L735 350H132ZM464 1141L658 888L595 836L324 1065L464 1141ZM464 1141V1065L204 831L142 879L332 1136Q366 1141 395 1142T464 1141Z" />
<glyph unicode="&#xeb;" horiz-adv-x="790" d="M444 -16Q256 -16 155 83T53 366Q53 553 153 663T422 773Q575 773 657 680T739 414Q739 399 738 382T735 350L544 387Q544 538 510 604T399 671Q251 671 251 430Q251 113 507 113Q607 113 716 154L708 49Q660 18
591 1T444 -16ZM132 350V439H719L735 350H132ZM243 878Q195 878 167 906T139 981Q139 1028 167 1056T243 1084Q291 1084 319 1056T347 981Q347 934 319 906T243 878ZM561 878Q513 878 485 906T457 981Q457 1028 485 1056T561 1084Q609 1084 637 1056T665 981Q665
934 637 906T561 878Z" />
<glyph unicode="&#xec;" horiz-adv-x="485" d="M157 6V684L341 703V6H157ZM157 511V639L186 587L48 656L53 707Q100 728 161 743T290 764H341V605L157 511ZM55 0L60 68Q86 80 116 89T183 107L157 25V169H341V25L318 99L447 70L441 0H55ZM318 833L32 1078L29 1114Q106
1153 201 1156L388 874L318 833Z" />
<glyph unicode="&#xed;" horiz-adv-x="485" d="M157 6V684L341 703V6H157ZM157 511V639L186 587L48 656L53 707Q100 728 161 743T290 764H341V605L157 511ZM55 0L60 68Q86 80 116 89T183 107L157 25V169H341V25L318 99L447 70L441 0H55ZM152 833L82 874L279 1156Q374
1153 451 1114L448 1078L152 833Z" />
<glyph unicode="&#xee;" horiz-adv-x="485" d="M157 6V684L341 703V6H157ZM157 511V639L186 587L48 656L53 707Q100 728 161 743T290 764H341V605L157 511ZM55 0L60 68Q86 80 116 89T183 107L157 25V169H341V25L318 99L447 70L441 0H55ZM292 1141L486 888L423
836L152 1065L292 1141ZM292 1141V1065L32 831L-30 879L160 1136Q194 1141 223 1142T292 1141Z" />
<glyph unicode="&#xef;" horiz-adv-x="485" d="M157 6V684L341 703V6H157ZM157 511V639L186 587L48 656L53 707Q100 728 161 743T290 764H341V605L157 511ZM55 0L60 68Q86 80 116 89T183 107L157 25V169H341V25L318 99L447 70L441 0H55ZM93 878Q45 878 17 906T-11
981Q-11 1028 17 1056T93 1084Q141 1084 169 1056T197 981Q197 934 169 906T93 878ZM367 878Q319 878 291 906T263 981Q263 1028 291 1056T367 1084Q415 1084 443 1056T471 981Q471 934 443 906T367 878Z" />
<glyph unicode="&#xf0;" horiz-adv-x="871" d="M468 1054Q634 956 720 799T807 437Q807 217 710 100T429 -18Q257 -18 155 86T53 366Q53 542 149 646T410 751Q610 751 648 547L611 508Q543 649 414 649Q256 649 256 394Q256 245 305 166T446 86Q530 86 567 162T605
408Q605 452 603 493T594 572L604 611Q572 749 509 843T350 993Q313 1015 267 1032T169 1062L223 1147Q284 1135 348 1111T468 1054ZM203 804L167 880L415 1022L489 968L203 804ZM491 968L417 1022L622 1139L658 1063L491 968Z" />
<glyph unicode="&#xf1;" horiz-adv-x="934" d="M611 6V509Q611 646 484 646Q384 646 278 562L258 618Q319 693 400 732T572 772Q680 772 737 715T795 550V6H611ZM153 6V676L337 634V6H153ZM57 0L62 68Q91 82 120 91T178 107L153 25V169H337V25L315 99L439 70L434
0H57ZM531 0L536 72Q557 82 582 91T636 107L611 25V169H795V25L773 99L895 70L890 0H531ZM153 511V639L182 587L44 656L49 707Q96 728 157 743T286 764L330 598L153 511ZM240 854L173 897Q249 1080 373 1080Q425 1080 457 1057T512 1010T566 986Q617 986 676 1086L743
1042Q667 860 543 860Q491 860 459 883T404 930T350 954Q299 954 240 854Z" />
<glyph unicode="&#xf2;" horiz-adv-x="861" d="M429 -18Q257 -18 155 88T53 375Q53 557 156 665T432 773Q605 773 706 666T807 378Q807 196 705 89T429 -18ZM446 86Q605 86 605 351Q605 504 556 586T415 669Q256 669 256 404Q256 250 305 168T446 86ZM518 833L232
1078L229 1114Q306 1153 401 1156L588 874L518 833Z" />
<glyph unicode="&#xf3;" horiz-adv-x="861" d="M429 -18Q257 -18 155 88T53 375Q53 557 156 665T432 773Q605 773 706 666T807 378Q807 196 705 89T429 -18ZM446 86Q605 86 605 351Q605 504 556 586T415 669Q256 669 256 404Q256 250 305 168T446 86ZM352 833L282
874L479 1156Q574 1153 651 1114L648 1078L352 833Z" />
<glyph unicode="&#xf4;" horiz-adv-x="861" d="M429 -18Q257 -18 155 88T53 375Q53 557 156 665T432 773Q605 773 706 666T807 378Q807 196 705 89T429 -18ZM446 86Q605 86 605 351Q605 504 556 586T415 669Q256 669 256 404Q256 250 305 168T446 86ZM492 1141L686
888L623 836L352 1065L492 1141ZM492 1141V1065L232 831L170 879L360 1136Q394 1141 423 1142T492 1141Z" />
<glyph unicode="&#xf5;" horiz-adv-x="861" d="M429 -18Q257 -18 155 88T53 375Q53 557 156 665T432 773Q605 773 706 666T807 378Q807 196 705 89T429 -18ZM446 86Q605 86 605 351Q605 504 556 586T415 669Q256 669 256 404Q256 250 305 168T446 86ZM212 854L145
897Q221 1080 345 1080Q397 1080 429 1057T484 1010T538 986Q589 986 648 1086L715 1042Q639 860 515 860Q463 860 431 883T376 930T322 954Q271 954 212 854Z" />
<glyph unicode="&#xf6;" horiz-adv-x="861" d="M429 -18Q257 -18 155 88T53 375Q53 557 156 665T432 773Q605 773 706 666T807 378Q807 196 705 89T429 -18ZM446 86Q605 86 605 351Q605 504 556 586T415 669Q256 669 256 404Q256 250 305 168T446 86ZM271 878Q223
878 195 906T167 981Q167 1028 195 1056T271 1084Q319 1084 347 1056T375 981Q375 934 347 906T271 878ZM589 878Q541 878 513 906T485 981Q485 1028 513 1056T589 1084Q637 1084 665 1056T693 981Q693 934 665 906T589 878Z" />
<glyph unicode="&#xf7;" horiz-adv-x="802" d="M85 426V543H717V426H85ZM401 642Q362 642 339 666T315 729Q315 768 338 792T401 816Q440 816 463 792T487 729Q487 690 464 666T401 642ZM401 153Q362 153 339 176T315 240Q315 279 338 303T401 327Q440 327 463
303T487 240Q487 200 464 177T401 153Z" />
<glyph unicode="&#xf8;" horiz-adv-x="861" d="M429 -18Q317 -18 233 31T101 168T53 375Q53 557 156 665T432 773Q545 773 629 723T760 585T807 378Q807 196 705 89T429 -18ZM446 85Q608 85 608 351Q608 507 559 588T415 670Q253 670 253 404Q253 248 301 167T446
85ZM138 -60L72 -4L198 154L210 169L723 815L789 759L663 601L650 586L138 -60Z" />
<glyph unicode="&#xf9;" horiz-adv-x="880" d="M329 -17Q105 -17 105 217V670L289 659V249Q289 174 316 141T403 107Q510 107 621 196L640 141Q506 -17 329 -17ZM105 540V652L134 610L15 670L21 729Q112 761 238 764H289V601L105 540ZM742 59L558 99V668L742 658V59ZM558
540V652L587 609L459 673L464 726Q512 743 571 753T691 764H742V603L558 540ZM608 -4L570 131L742 177V61L715 110L836 75L830 8Q745 -6 608 -4ZM499 833L213 1078L210 1114Q287 1153 382 1156L569 874L499 833Z" />
<glyph unicode="&#xfa;" horiz-adv-x="880" d="M329 -17Q105 -17 105 217V670L289 659V249Q289 174 316 141T403 107Q510 107 621 196L640 141Q506 -17 329 -17ZM105 540V652L134 610L15 670L21 729Q112 761 238 764H289V601L105 540ZM742 59L558 99V668L742 658V59ZM558
540V652L587 609L459 673L464 726Q512 743 571 753T691 764H742V603L558 540ZM608 -4L570 131L742 177V61L715 110L836 75L830 8Q745 -6 608 -4ZM333 833L263 874L460 1156Q555 1153 632 1114L629 1078L333 833Z" />
<glyph unicode="&#xfb;" horiz-adv-x="880" d="M329 -17Q105 -17 105 217V670L289 659V249Q289 174 316 141T403 107Q510 107 621 196L640 141Q506 -17 329 -17ZM105 540V652L134 610L15 670L21 729Q112 761 238 764H289V601L105 540ZM742 59L558 99V668L742 658V59ZM558
540V652L587 609L459 673L464 726Q512 743 571 753T691 764H742V603L558 540ZM608 -4L570 131L742 177V61L715 110L836 75L830 8Q745 -6 608 -4ZM473 1141L667 888L604 836L333 1065L473 1141ZM473 1141V1065L213 831L151 879L341 1136Q375 1141 404 1142T473 1141Z"
/>
<glyph unicode="&#xfc;" horiz-adv-x="880" d="M329 -17Q105 -17 105 217V670L289 659V249Q289 174 316 141T403 107Q510 107 621 196L640 141Q506 -17 329 -17ZM105 540V652L134 610L15 670L21 729Q112 761 238 764H289V601L105 540ZM742 59L558 99V668L742 658V59ZM558
540V652L587 609L459 673L464 726Q512 743 571 753T691 764H742V603L558 540ZM608 -4L570 131L742 177V61L715 110L836 75L830 8Q745 -6 608 -4ZM252 878Q204 878 176 906T148 981Q148 1028 176 1056T252 1084Q300 1084 328 1056T356 981Q356 934 328 906T252 878ZM570
878Q522 878 494 906T466 981Q466 1028 494 1056T570 1084Q618 1084 646 1056T674 981Q674 934 646 906T570 878Z" />
<glyph unicode="&#xfd;" horiz-adv-x="837" d="M364 -354Q268 -342 192 -304L373 22L407 48L638 679L650 652L536 681L542 755H829L823 683Q803 669 775 660T718 644L769 678L364 -354ZM359 -64L75 680L128 652L4 681L9 755H372L366 681Q345 671 317 662T259 646L274
671L484 63L476 -1L359 -64ZM369 833L299 874L496 1156Q591 1153 668 1114L665 1078L369 833Z" />
<glyph unicode="&#xfe;" horiz-adv-x="857" d="M419 -18Q265 -18 199 76L231 161Q320 86 419 86Q512 86 561 159T611 367Q611 502 562 574T422 647Q334 647 239 572L220 621Q347 773 506 773Q645 773 727 673T810 402Q810 210 704 96T419 -18ZM19 -320L24 -252Q53
-238 82 -229T140 -213L115 -295V-151H299V-295L277 -223L441 -250L436 -320H19ZM115 -309V1072L299 1031V-309H115ZM115 896V1021L136 973L1 1029L5 1078Q104 1113 230 1118H299V946L115 896Z" />
<glyph unicode="&#xff;" horiz-adv-x="837" d="M364 -354Q268 -342 192 -304L373 22L407 48L638 679L650 652L536 681L542 755H829L823 683Q803 669 775 660T718 644L769 678L364 -354ZM359 -64L75 680L128 652L4 681L9 755H372L366 681Q345 671 317 662T259 646L274
671L484 63L476 -1L359 -64ZM288 878Q240 878 212 906T184 981Q184 1028 212 1056T288 1084Q336 1084 364 1056T392 981Q392 934 364 906T288 878ZM606 878Q558 878 530 906T502 981Q502 1028 530 1056T606 1084Q654 1084 682 1056T710 981Q710 934 682 906T606
878Z" />
<glyph unicode="&#x2013;" horiz-adv-x="912" d="M85 412V537H827V412H85Z" />
<glyph unicode="&#x2014;" horiz-adv-x="1252" d="M85 412V537H1167V412H85Z" />
<glyph unicode="&#x2018;" horiz-adv-x="356" d="M279 1176L320 1124Q280 1102 251 1078T203 1023Q186 995 179 965T172 898L124 935H289Q295 833 270 763Q233 751 188 751Q63 751 63 885Q63 976 123 1058T279 1176Z" />
<glyph unicode="&#x2019;" horiz-adv-x="356" d="M77 731L36 783Q76 805 105 829T153 884Q170 912 177 942T184 1009L232 972H67Q61 1074 86 1144Q123 1156 168 1156Q293 1156 293 1022Q293 931 233 849T77 731Z" />
<glyph unicode="&#x201a;" horiz-adv-x="402" d="M91 -227L50 -175Q90 -153 119 -129T167 -74Q184 -46 191 -16T198 51L246 14H81Q75 116 100 186Q137 198 182 198Q307 198 307 64Q307 -27 247 -109T91 -227Z" />
<glyph unicode="&#x201c;" horiz-adv-x="646" d="M569 1176L610 1124Q570 1102 541 1078T493 1023Q476 995 469 965T462 898L414 935H579Q585 833 560 763Q523 751 478 751Q353 751 353 885Q353 976 413 1058T569 1176ZM279 1176L320 1124Q280 1102 251 1078T203
1023Q186 995 179 965T172 898L124 935H289Q295 833 270 763Q233 751 188 751Q63 751 63 885Q63 976 123 1058T279 1176Z" />
<glyph unicode="&#x201d;" horiz-adv-x="646" d="M77 731L36 783Q76 805 105 829T153 884Q170 912 177 942T184 1009L232 972H67Q61 1074 86 1144Q123 1156 168 1156Q293 1156 293 1022Q293 931 233 849T77 731ZM367 731L326 783Q366 805 395 829T443 884Q460
912 467 942T474 1009L522 972H357Q351 1074 376 1144Q413 1156 458 1156Q583 1156 583 1022Q583 931 523 849T367 731Z" />
<glyph unicode="&#x201e;" horiz-adv-x="692" d="M91 -227L50 -175Q90 -153 119 -129T167 -74Q184 -46 191 -16T198 51L246 14H81Q75 116 100 186Q137 198 182 198Q307 198 307 64Q307 -27 247 -109T91 -227ZM381 -227L340 -175Q380 -153 409 -129T457 -74Q474
-46 481 -16T488 51L536 14H371Q365 116 390 186Q427 198 472 198Q597 198 597 64Q597 -27 537 -109T381 -227Z" />
<glyph unicode="&#x2022;" horiz-adv-x="621" d="M310 282Q223 282 172 334T121 476Q121 565 172 617T310 670Q397 670 448 618T499 476Q499 387 448 335T310 282Z" />
<glyph unicode="&#x2039;" horiz-adv-x="507" d="M204 364L60 372Q58 389 59 405T64 434L373 746L445 689L204 364ZM373 56L60 372L204 437L445 113L373 56Z" />
<glyph unicode="&#x203a;" horiz-adv-x="507" d="M303 438L447 430Q449 413 448 397T443 368L134 56L62 113L303 438ZM134 746L447 430L303 365L62 689L134 746Z" />
</font>
</defs>
</svg>
