<?xml version="1.0" standalone="no"?>
<!DOCTYPE svg PUBLIC "-//W3C//DTD SVG 1.1//EN" "http://www.w3.org/Graphics/SVG/1.1/DTD/svg11.dtd">
<svg xmlns="http://www.w3.org/2000/svg">
<defs >
<font id="Lemonada" horiz-adv-x="685" ><font-face
    font-family="Lemonada SemiBold"
    units-per-em="1000"
    panose-1="0 0 0 0 0 0 0 0 0 0"
    ascent="1345"
    descent="-653"
    alphabetic="0" />
<glyph unicode=" " horiz-adv-x="309" />
<glyph unicode="!" horiz-adv-x="398" d="M189 267Q155 267 143 287T131 338Q131 353 135 381T146 445T158 517T168 586T172 642Q172 661 168 684T150 720Q177 748 214 761T295 775Q347 775 369 748T391 679Q391 652 383 613T360 529T330 441T299 360T273 299Q255
283 231 275T189 267ZM147 -25Q107 -25 81 1T54 66Q54 96 68 120T108 160T163 176Q203 176 229 150T256 85Q256 57 242 32T202 -9T147 -25Z" />
<glyph unicode="&quot;" horiz-adv-x="461" d="M355 446Q325 446 314 460T303 496Q303 528 316 564T342 638T355 716Q355 739 348 759Q369 770 391 775T433 780Q462 780 473 766T485 730Q485 697 472 661T446 587T433 510Q433 487 440 467Q419 457 396 452T355
446ZM132 446Q102 446 91 460T80 496Q80 528 93 564T119 638T132 716Q132 739 125 759Q146 770 168 775T210 780Q240 780 251 766T262 730Q262 697 249 661T223 587T210 510Q210 487 217 467Q196 457 173 452T132 446Z" />
<glyph unicode="#" horiz-adv-x="859" d="M172 158Q152 158 129 164T93 181Q140 319 194 521T309 994Q327 1074 388 1074Q409 1074 431 1068T467 1051Q420 914 366 711T251 238Q233 158 172 158ZM477 -98Q457 -98 434 -92T398 -75Q445 63 499 265T614 738Q632
818 693 818Q714 818 736 812T772 795Q725 658 671 455T556 -18Q538 -98 477 -98ZM161 156Q85 156 58 169T30 219Q30 255 49 284Q70 281 98 278T160 273T228 271Q299 271 373 278T523 291T677 298Q754 298 781 285T809 236Q809 198 790 170Q758 176 710 179T612
183Q541 183 467 177T317 163T161 156ZM209 456Q133 456 106 469T78 519Q78 555 97 584Q118 581 146 578T208 573T276 571Q347 571 421 578T571 591T725 598Q802 598 829 585T857 536Q857 498 838 470Q806 476 758 479T660 483Q589 483 515 477T365 463T209 456Z"
/>
<glyph unicode="$" horiz-adv-x="690" d="M312 -24Q224 -24 168 -8T84 37T56 104Q56 129 67 154T100 196Q134 141 184 108T303 75Q361 75 402 96T443 161Q443 189 418 207T353 240T270 272T186 313T121 376T96 471Q96 528 123 571T197 643T307 687T442 702Q511
702 562 688T641 647T669 586Q669 538 637 513T559 487Q515 487 481 514T426 592Q361 585 320 558T278 492Q278 464 303 446T367 414T450 384T534 345T598 285T623 192Q623 141 597 101T527 33T427 -9T312 -24ZM272 -194Q251 -194 228 -189T192 -176Q204 -133 216
-86T240 15L366 21Q360 -11 355 -44T343 -111Q329 -194 272 -194ZM349 606Q361 653 372 703T395 807Q413 886 472 886Q493 886 515 880T551 863Q532 809 513 745T472 606H349Z" />
<glyph unicode="%" horiz-adv-x="1130" d="M262 272Q173 272 121 324T69 466Q69 538 101 592T193 676T329 707Q341 707 356 705T382 698Q385 695 386 688T389 669Q442 658 469 618T496 513Q496 445 465 391T381 304T262 272ZM266 373Q292 373 311 390T342 437T353
507Q353 585 286 585Q278 585 270 584T252 579Q234 560 223 525T211 457Q211 418 226 396T266 373ZM401 -40Q381 -40 360 -34T326 -17Q373 68 427 176T543 419T671 716Q703 796 764 796Q785 796 806 790T840 773Q770 649 684 467T495 40Q461 -40 401 -40ZM829 -24Q740
-24 688 28T635 170Q635 242 668 296T759 380T895 411Q908 411 923 409T948 402Q951 399 953 392T956 373Q1008 362 1035 322T1062 216Q1062 149 1031 95T948 8T829 -24ZM833 76Q858 76 878 93T909 141T920 211Q920 289 852 289Q844 289 836 288T819 283Q800 264
789 228T777 161Q777 122 792 99T833 76Z" />
<glyph unicode="&amp;" horiz-adv-x="759" d="M363 309Q283 309 223 335T130 408T96 517Q96 573 121 620T192 702T299 756T434 775Q521 775 574 744T627 663Q627 622 600 597T523 572Q485 572 454 597T406 664Q340 650 303 612T265 521Q265 490 281 465T326 426T392
412Q464 412 519 425T618 452T700 466Q767 466 767 416Q767 397 761 374T743 331Q720 334 703 335T670 337Q635 337 583 330T474 316T363 309ZM246 -92Q182 -92 134 -69T60 -5T34 92Q34 146 56 196T120 289T217 361H322Q265 318 234 268T203 159Q203 99 232 70T312
40Q358 40 399 62T472 125T524 221T546 342L626 348Q629 251 603 171T526 32T404 -59T246 -92Z" />
<glyph unicode="&apos;" horiz-adv-x="238" d="M132 446Q102 446 91 460T80 496Q80 528 93 564T119 638T132 716Q132 739 125 759Q146 770 168 775T210 780Q240 780 251 766T262 730Q262 697 249 661T223 587T210 510Q210 487 217 467Q196 457 173 452T132 446Z" />
<glyph unicode="(" horiz-adv-x="415" d="M230 -156Q160 -156 122 -66T84 191Q84 277 99 364T139 529T198 669T268 765T341 801Q365 801 382 793T416 765Q377 729 343 671T284 540T244 388T230 231Q230 114 257 32T343 -113Q316 -134 287 -145T230 -156Z" />
<glyph unicode=")" horiz-adv-x="415" d="M185 801Q255 801 293 711T331 454Q331 368 316 281T276 116T217 -24T147 -120T74 -156Q50 -156 33 -148T-1 -120Q38 -84 72 -26T131 105T171 257T185 414Q185 531 158 613T72 758Q99 779 128 790T185 801Z" />
<glyph unicode="*" horiz-adv-x="592" d="M396 300Q373 300 356 326T326 396T309 495L235 352Q206 356 178 366T131 392T112 424Q112 446 133 469T190 515T273 556L113 583Q111 595 110 608T108 633Q108 672 119 698T155 724Q183 724 212 707T269 663T320 611L294
770Q318 783 345 791T393 800Q423 800 434 789T446 746Q446 728 441 705T422 651T386 582L530 656Q546 641 560 621T584 581T594 544Q594 521 568 509T503 497Q488 497 471 498T431 502T379 511L493 397Q483 374 466 352T431 315T396 300Z" />
<glyph unicode="+" horiz-adv-x="721" d="M311 120Q283 120 275 137T274 200L339 601Q399 625 437 625Q466 625 473 608T474 545L410 144Q379 132 354 126T311 120ZM201 300Q156 300 139 311T121 350Q121 368 127 392T145 445H546Q592 445 609 435T626 396Q626
358 602 300H201Z" />
<glyph unicode="," horiz-adv-x="333" d="M40 -189L26 -149Q56 -134 77 -110T110 -60T122 -11L59 70Q61 99 76 123T118 162T174 177Q220 177 245 146T270 74Q270 12 242 -41T162 -133T40 -189Z" />
<glyph unicode="-" horiz-adv-x="518" d="M118 202Q93 202 77 215T61 266Q61 310 85 360Q99 357 110 356T135 354Q171 354 205 362T272 381T338 400T405 408Q431 408 447 395T463 344Q463 324 457 299T438 250Q426 254 414 255T389 256Q352 256 318 248T252 229T186
210T118 202Z" />
<glyph unicode="." horiz-adv-x="290" d="M137 -25Q97 -25 71 1T44 66Q44 96 58 120T97 160T153 176Q193 176 219 150T246 85Q246 57 232 32T192 -9T137 -25Z" />
<glyph unicode="/" horiz-adv-x="398" d="M91 -80Q71 -80 48 -74T12 -57Q59 81 113 283T228 756Q246 836 307 836Q328 836 350 830T386 813Q339 676 285 473T170 0Q152 -80 91 -80Z" />
<glyph unicode="0" horiz-adv-x="729" d="M343 -25Q258 -25 195 13T98 123T64 291Q64 413 113 505T251 648T456 700Q475 700 498 696T537 685Q542 680 544 668T548 637Q619 619 656 554T694 384Q694 298 668 224T593 93T482 6T343 -25ZM351 91Q401 91 439 127T498
227T520 374Q520 466 487 511T384 556Q369 556 353 553T318 542Q293 507 275 463T248 370T238 277Q238 191 269 141T351 91Z" />
<glyph unicode="1" horiz-adv-x="519" d="M293 -25Q240 -25 215 6T190 101Q190 131 192 163T200 235T216 331T242 461Q182 461 145 492T99 579Q162 594 206 614T284 655T345 687T401 700Q460 700 460 633Q460 609 452 566T431 468T406 351T384 229T375 116Q375
84 381 56T400 6Q344 -25 293 -25Z" />
<glyph unicode="2" horiz-adv-x="690" d="M257 80L100 123Q218 190 290 251T395 365T428 460Q428 509 404 536T330 563Q297 563 269 546T222 498T196 421Q153 426 129 451T104 517Q104 572 137 613T230 677T368 700Q437 700 489 675T570 605T600 505Q600 441 566
377T457 242T257 80ZM484 -30Q443 -30 405 -23T325 -3T231 30Q200 2 174 -10T116 -22Q79 -22 56 2T32 63Q32 115 72 148T175 183Q203 183 243 173T327 148T413 124T484 113L617 175Q630 147 635 127T641 86Q641 53 620 27T564 -14T484 -30Z" />
<glyph unicode="3" horiz-adv-x="663" d="M206 -156Q113 -156 64 -129T15 -51Q15 -13 44 11T116 35Q151 35 184 13T239 -48Q287 -48 325 -30T387 21T410 94Q410 119 402 142T379 182T345 207Q317 189 289 180T234 171Q197 171 174 190T151 242Q151 280 187 303T286
326Q376 326 443 298T547 220T584 103Q584 48 556 1T477 -82T357 -136T206 -156ZM406 240L234 275Q296 293 338 320T401 382T423 461Q423 511 397 537T322 563Q286 563 256 545T205 496T177 421Q134 426 110 451T85 517Q85 572 119 613T216 677T361 700Q431 700
484 676T567 609T597 507Q597 434 549 367T406 240Z" />
<glyph unicode="4" horiz-adv-x="699" d="M204 0Q118 0 75 26T32 106Q32 134 47 171T85 254T134 347T184 445T223 541T238 630Q238 644 237 655T230 679Q252 689 277 694T323 700Q437 700 437 580Q437 490 370 375T166 116H432L403 19Q377 14 343 10T272 3T204
0ZM497 -170Q442 -170 412 -138T381 -46Q381 -19 389 24T413 119T447 226T487 333Q501 345 522 355T567 371T611 377Q638 377 647 371T657 346Q657 327 647 287T623 194T599 80T588 -41Q588 -94 612 -139Q579 -155 553 -162T497 -170Z" />
<glyph unicode="5" horiz-adv-x="623" d="M205 -156Q114 -156 67 -129T19 -52Q19 -13 49 11T123 36Q158 36 190 13T243 -48Q289 -48 326 -29T386 23T409 96Q409 126 393 157T339 209T236 231Q207 231 182 226T146 221Q134 221 128 227T122 244L176 570L318 516L287
329Q377 329 443 302T546 225T583 108Q583 51 555 3T475 -80T355 -136T205 -156ZM365 498Q252 498 193 529T134 617Q134 657 157 679T223 702Q255 702 283 682T328 626Q362 628 408 639T503 669T595 707Q601 690 604 670T608 631Q608 583 582 554T502 512T365 498Z"
/>
<glyph unicode="6" horiz-adv-x="718" d="M324 -25Q253 -25 198 5T110 97T78 250Q78 342 105 427T179 585T283 712T403 797T523 827Q576 827 603 807T648 743Q594 727 542 702T442 639T353 548T279 423H288Q330 476 376 494T466 512Q533 512 578 483T646 405T669
292Q669 224 642 166T566 66T455 -1T324 -25ZM354 87Q376 87 400 98T446 133T481 193T495 278Q495 310 485 339T450 388T381 407Q355 407 325 387T274 327T252 225Q252 191 261 159T293 107T354 87Z" />
<glyph unicode="7" horiz-adv-x="589" d="M256 -121Q204 -121 173 -95T141 -9Q141 57 169 145T250 334T371 535L542 569Q507 513 471 440T406 284T358 119T340 -37Q340 -55 341 -69T351 -98Q325 -111 302 -116T256 -121ZM349 501Q245 501 181 513T88 554T59 628Q59
648 64 669T76 710Q114 694 158 680T247 654T334 636T407 628Q427 665 458 684T523 704Q564 704 586 684T609 628Q609 566 543 534T349 501Z" />
<glyph unicode="8" horiz-adv-x="671" d="M316 -26Q197 -26 128 24T59 162Q59 191 68 221T102 282T176 345T303 409Q373 439 410 470T461 533T475 595Q475 635 451 658T386 682Q344 682 314 660T284 595Q284 560 309 531T374 474T458 418T541 356T606 284T632
194Q632 130 592 80T480 2T316 -26ZM330 71Q364 71 393 83T439 119T457 177Q457 206 432 234T368 290T284 350T199 416T135 491T110 578Q110 639 144 684T242 754T389 779Q498 779 561 729T625 595Q625 527 566 465T394 356Q340 333 298 303T233 238T209 163Q209
121 243 96T330 71Z" />
<glyph unicode="9" horiz-adv-x="700" d="M205 -152Q153 -152 126 -132T81 -68Q135 -52 187 -27T287 36T376 127T450 252H441Q399 200 353 182T262 163Q196 163 151 192T83 271T59 383Q59 451 86 509T162 609T273 676T404 700Q476 700 531 670T618 578T650 425Q650
333 623 248T550 90T445 -37T325 -122T205 -152ZM347 268Q374 268 404 288T455 348T476 450Q476 484 467 516T435 568T374 588Q353 588 328 577T282 542T247 482T233 397Q233 365 243 336T278 287T347 268Z" />
<glyph unicode=":" horiz-adv-x="333" d="M137 -25Q97 -25 71 1T44 66Q44 96 58 120T97 160T153 176Q193 176 219 150T246 85Q246 57 232 32T192 -9T137 -25ZM186 358Q146 358 120 384T93 449Q93 479 107 503T146 543T202 559Q242 559 268 533T295 468Q295 440
281 415T241 374T186 358Z" />
<glyph unicode=";" horiz-adv-x="333" d="M40 -189L26 -149Q56 -134 77 -110T110 -60T122 -11L59 70Q61 99 76 123T118 162T174 177Q220 177 245 146T270 74Q270 12 242 -41T162 -133T40 -189ZM186 358Q146 358 120 384T93 449Q93 479 107 503T146 543T202 559Q242
559 268 533T295 468Q295 440 281 415T241 374T186 358Z" />
<glyph unicode="&lt;" horiz-adv-x="759" d="M188 442L575 259Q605 245 619 232T633 204Q633 190 622 172T595 137T564 105L178 287Q148 301 134 314T119 342Q119 356 130 374T156 410T188 442ZM628 632Q649 632 661 613T677 565T684 508L300 335Q281 326 268
322T244 317Q221 317 207 345Q199 362 194 387T188 442L572 615Q591 623 605 627T628 632Z" />
<glyph unicode="=" horiz-adv-x="721" d="M180 165Q135 165 118 176T100 215Q100 233 106 257T124 310H525Q571 310 588 300T605 261Q605 223 581 165H180ZM223 435Q178 435 161 446T143 485Q143 503 149 527T167 580H568Q614 580 631 570T648 531Q648 493 624 435H223Z" />
<glyph unicode="&gt;" horiz-adv-x="759" d="M597 295L210 478Q180 492 166 505T152 533Q152 547 163 565T190 600T221 632L607 450Q637 436 651 423T666 395Q666 381 655 363T629 327T597 295ZM157 105Q136 105 124 124T108 172T101 229L485 402Q504 411 517
415T541 420Q564 420 578 392Q586 375 591 350T597 295L213 122Q194 114 180 110T157 105Z" />
<glyph unicode="?" horiz-adv-x="593" d="M279 254Q230 254 205 281T180 349Q223 352 257 366T317 404T355 458T369 525Q369 567 346 596T274 626Q247 626 218 613T166 570T132 489Q98 489 78 502T48 535T39 579Q39 610 54 643T100 707T181 756T300 775Q394 775
449 741T529 654T554 542Q554 479 532 426T470 335T382 276T279 254ZM193 -25Q154 -25 127 1T100 66Q100 96 114 120T154 160T210 176Q250 176 276 150T303 85Q303 57 288 32T249 -9T193 -25Z" />
<glyph unicode="@" horiz-adv-x="1079" d="M509 -235Q370 -235 269 -182T114 -32T59 197Q59 324 103 433T228 625T416 754T650 800Q756 800 832 774T956 703T1027 601T1050 482Q1050 412 1025 343T953 216T839 125T692 90L765 182Q806 195 842 224T904 294T946
381T961 474Q961 522 944 566T890 646T793 701T645 722Q545 722 458 685T305 582T203 430T166 243Q166 74 263 -16T543 -106Q655 -106 751 -66T924 53Q932 37 935 20T939 -13Q939 -65 902 -106T802 -175T663 -219T509 -235ZM459 90Q399 90 362 134T325 253Q325
335 364 397T469 493T613 527Q645 527 670 521Q674 512 676 496T678 459Q611 459 566 436T498 375T475 290Q475 255 489 237T530 218Q582 218 611 276T653 459Q694 510 753 510Q779 510 793 495T808 450Q808 432 802 402T787 336T772 264T765 196Q765 173 771 155T789
127Q767 109 742 100T692 90Q653 90 632 112T611 173Q611 178 611 183T613 194L605 197Q584 147 546 119T459 90Z" />
<glyph unicode="A" horiz-adv-x="738" d="M108 -27Q29 -27 29 65Q29 99 42 146T84 258T157 409T265 608L233 676Q278 704 316 716T398 728Q449 728 468 705Q506 728 540 728Q585 728 606 699T627 605Q627 550 627 492T626 376T629 264T639 162T659 75T694 11Q645
-27 587 -27Q549 -27 523 -9T480 50T457 157T450 319Q450 410 451 483T454 609H442Q366 491 314 393T234 221T207 101Q207 47 226 11Q202 -7 171 -17T108 -27ZM165 171L184 271H530L513 171H165Z" />
<glyph unicode="B" horiz-adv-x="758" d="M375 -25Q224 -25 152 11T79 123Q79 147 82 181T92 267T111 394T143 576L98 665Q146 695 189 710T271 726Q325 726 333 670Q437 726 533 726Q613 726 659 686T706 574Q706 506 663 454T539 368Q619 353 664 306T709 189Q709
125 668 77T551 2T375 -25ZM379 73Q446 73 485 106T525 196Q525 249 490 278T387 308Q359 308 327 303T262 287L273 373Q350 377 405 397T491 452T522 532Q522 612 431 612Q403 612 377 607T324 591Q312 531 301 468T281 339T265 213T253 97Q279 86 313 80T379
73Z" />
<glyph unicode="C" horiz-adv-x="695" d="M344 -25Q201 -25 120 53T39 271Q39 370 73 452T167 596T310 692T487 726Q573 726 623 697T673 615Q673 573 643 545T565 517Q520 517 481 540T418 612Q362 590 318 539T248 417T222 265Q222 172 256 120T351 67Q399 67
436 92T496 160T522 255Q576 255 605 235T635 171Q635 117 596 73T491 2T344 -25Z" />
<glyph unicode="D" horiz-adv-x="845" d="M326 -25Q207 -25 143 14T79 125Q79 148 82 182T93 267T114 395T146 576L102 665Q150 695 193 710T273 726Q338 726 338 648Q338 635 334 603T322 525T307 427T290 321T274 221T263 139T258 88Q278 80 299 77T344 73Q419
73 476 113T567 223T600 385Q600 495 552 555T415 615Q385 615 360 609T311 589T257 555L236 625Q279 659 316 681T393 715T488 726Q577 726 643 688T746 579T783 414Q783 317 750 237T656 98T511 7T326 -25Z" />
<glyph unicode="E" horiz-adv-x="610" d="M181 -26Q127 -26 103 1T79 88Q79 113 82 148T93 238T114 375T147 576L103 665Q149 695 193 710T275 726Q339 726 339 648Q339 636 335 606T324 534T308 444T291 346T275 253T263 174T259 122Q259 84 267 60T296 16Q244
-26 181 -26ZM428 -25Q370 -25 316 -12T208 31L221 112H436Q471 117 504 125T569 146Q574 132 576 119T579 90Q579 34 541 5T428 -25ZM357 261Q336 261 313 265T256 277L274 373Q298 369 322 367T372 364L456 385Q457 377 458 367T459 346Q459 306 432 284T357
261ZM459 528Q429 528 394 533T324 546T263 566L280 672Q346 672 399 678T505 696T617 721Q621 705 622 691T624 665Q624 620 603 590T545 544T459 528Z" />
<glyph unicode="F" horiz-adv-x="571" d="M181 -26Q127 -26 103 1T79 88Q79 113 82 148T93 238T114 375T147 576L103 665Q149 695 193 710T275 726Q339 726 339 648Q339 636 335 606T324 534T308 444T291 346T275 253T263 174T259 122Q259 83 265 57T287 12Q240
-26 181 -26ZM357 261Q336 261 313 265T256 277L274 373Q298 369 322 367T372 364L456 385Q457 377 458 367T459 346Q459 306 432 284T357 261ZM449 528Q419 528 384 533T314 546T253 566L270 672Q336 672 389 678T495 696T607 721Q611 705 612 691T614 665Q614
620 593 590T535 544T449 528Z" />
<glyph unicode="G" horiz-adv-x="744" d="M353 -30Q206 -30 123 49T39 271Q39 370 74 452T172 596T319 692T501 726Q589 726 640 697T691 615Q691 573 660 545T581 517Q536 517 495 540T429 612Q370 590 323 539T249 417T222 265Q222 172 258 120T357 67Q406 67
443 92T503 158T529 253Q548 253 558 236T568 180Q568 122 539 75T461 -1T353 -30ZM536 -185Q483 -185 460 -162T436 -93Q436 -76 440 -46T455 26L558 199L529 253L456 316Q494 343 540 360T626 377Q664 377 679 363T694 317Q694 306 686 274T665 197T640 102T619
5T610 -81Q610 -104 616 -121T635 -149Q612 -167 587 -176T536 -185Z" />
<glyph unicode="H" horiz-adv-x="821" d="M623 -26Q570 -26 546 1T521 88Q521 113 524 147T534 236T555 372T590 576L545 665Q592 695 635 710T717 726Q781 726 781 648Q781 636 777 606T766 534T750 444T733 346T717 253T705 174T701 122Q701 83 707 57T729 12Q679
-26 623 -26ZM181 -26Q127 -26 103 1T79 88Q79 113 81 147T92 236T113 372T147 576L103 665Q149 695 193 710T275 726Q339 726 339 648Q339 636 335 606T324 534T308 444T291 346T275 253T263 174T259 122Q259 83 265 57T287 12Q237 -26 181 -26ZM220 276L239 377H613L596
276H220Z" />
<glyph unicode="I" horiz-adv-x="379" d="M181 -25Q127 -25 103 2T79 89Q79 114 81 148T92 237T113 373T147 576L103 665Q149 695 193 710T275 726Q339 726 339 648Q339 636 335 606T324 534T308 444T291 347T275 254T263 175T259 123Q259 84 265 58T287 13Q237
-25 181 -25Z" />
<glyph unicode="J" horiz-adv-x="583" d="M183 -25Q133 -25 93 -10T29 33T5 97Q5 138 33 163T101 189Q135 189 163 171T211 117T239 30L207 69Q231 76 247 86T277 116T299 175T317 275L359 575L551 648L499 275Q487 187 458 129T388 37T295 -11T183 -25ZM353 513Q208
513 147 543T86 647Q86 667 90 689T101 732Q142 710 192 692T290 661T372 646Q390 686 419 706T484 726Q529 726 553 704T577 640Q577 578 520 546T353 513Z" />
<glyph unicode="K" horiz-adv-x="717" d="M191 221V298L336 406Q384 442 419 474T476 535T510 592T521 647Q521 658 519 668T513 689Q570 725 625 725Q667 725 689 704T711 644Q711 602 681 558T588 465T426 358L191 221ZM181 -26Q127 -26 103 1T79 88Q79 113
82 149T93 240T114 377T147 576L103 665Q150 695 193 710T275 726Q339 726 339 648Q339 636 335 606T324 534T308 444T291 346T275 253T263 174T259 122Q259 83 265 57T287 12Q238 -26 181 -26ZM589 -25Q549 -25 521 -11T469 40T419 142L345 331L496 437Q519 362
546 295T601 173T656 79T709 21Q697 9 676 -1T632 -18T589 -25Z" />
<glyph unicode="L" horiz-adv-x="549" d="M181 -26Q127 -26 103 1T79 88Q79 113 82 148T92 238T113 375T147 576L103 665Q149 695 193 710T275 726Q339 726 339 648Q339 636 335 606T324 534T308 444T291 346T275 253T263 174T259 122Q259 84 267 60T296 16Q242
-26 181 -26ZM384 -25Q337 -25 291 -15T194 18L237 112H387Q422 117 455 125T520 146Q525 132 527 119T530 90Q530 34 493 5T384 -25Z" />
<glyph unicode="M" horiz-adv-x="1030" d="M181 -26Q126 -26 103 4T79 99Q79 125 82 163T94 257T116 391T146 576L102 665Q143 692 187 709T273 726Q311 726 340 716T391 676T432 593T467 453T501 242H513Q530 305 557 371T621 500T703 613T799 693T908 722Q940
722 958 711T983 681T991 637Q991 626 987 597T975 528T960 442T943 348T927 258T916 182T911 132Q911 90 918 61T939 11Q887 -27 833 -27Q779 -27 756 4T732 98Q732 124 735 161T746 249T766 371T794 536H786Q751 499 723 453T671 357T630 256T602 162T587 82Q564
62 538 52T486 41Q463 41 445 52T412 92T385 177T359 321T329 536H321Q312 491 303 443T286 347T272 257T262 183T258 133Q258 91 265 62T286 12Q260 -8 234 -17T181 -26Z" />
<glyph unicode="N" horiz-adv-x="856" d="M658 -26Q619 -26 587 -17T529 15T481 81T436 189T390 349T338 570H281L274 726Q316 726 347 714T404 671T452 580T500 426T556 194L653 193L658 -26ZM181 -26Q127 -26 103 1T79 88Q79 113 81 147T92 236T113 372T147
576L103 665Q149 695 193 710T275 726Q339 726 339 648Q339 636 335 606T324 534T308 444T291 346T275 253T263 174T259 122Q259 83 265 57T287 12Q237 -26 181 -26ZM658 -26Q605 -26 581 1T556 89Q556 113 559 147T570 236T591 373T625 577L586 666Q631 695 673
711T752 727Q816 727 816 649Q816 636 812 606T801 535T786 445T768 347T752 253T741 175T736 122Q736 83 743 58T764 12Q739 -7 713 -16T658 -26Z" />
<glyph unicode="O" horiz-adv-x="762" d="M342 -25Q250 -25 182 13T77 121T39 282Q39 383 70 465T155 605T278 694T423 725Q484 725 511 706T538 643Q538 628 536 617T526 590Q516 593 499 595T468 598Q396 598 341 557T254 445T223 284Q223 176 266 122T382 67Q420
67 458 84T529 134T585 212T616 312Q547 344 521 391T494 491Q494 527 509 555T551 601T611 618Q672 618 706 568T740 431Q740 334 710 251T627 106T501 10T342 -25Z" />
<glyph unicode="P" horiz-adv-x="708" d="M383 205Q334 205 296 216T222 250L236 341Q256 325 282 318T335 311Q389 311 430 334T494 396T517 486Q517 520 505 549T467 597T398 615Q363 615 329 599T256 552V631Q287 657 318 678T389 711T485 724Q555 724 604
693T678 610T703 500Q703 446 684 394T626 299T526 231T383 205ZM181 -26Q127 -26 103 1T79 88Q79 113 81 147T92 236T113 372T147 576L103 665Q149 695 193 710T275 726Q339 726 339 648Q339 636 335 606T324 534T308 444T291 346T275 253T263 174T259 122Q259
83 265 57T287 12Q237 -26 181 -26Z" />
<glyph unicode="Q" horiz-adv-x="762" d="M549 -207Q496 -207 442 -187T341 -140T259 -92Q236 -124 206 -137T153 -150Q120 -150 102 -130T84 -81Q84 -49 109 -25T185 0Q233 0 284 -11T391 -34T504 -46Q549 -46 592 -40T677 -18Q682 -31 684 -45T686 -75Q686 -112
671 -142T625 -189T549 -207ZM342 -25Q250 -25 182 13T77 121T39 282Q39 383 70 465T155 605T278 694T423 725Q484 725 511 706T538 643Q538 628 536 617T526 590Q516 593 499 595T468 598Q396 598 341 557T254 445T223 284Q223 176 266 122T382 67Q420 67 458
84T529 134T585 212T616 312Q547 344 521 391T494 491Q494 527 509 555T551 601T611 618Q672 618 706 568T740 431Q740 334 710 251T627 106T501 10T342 -25Z" />
<glyph unicode="R" horiz-adv-x="738" d="M383 240Q336 240 301 249T227 285L236 376Q256 360 282 353T335 346Q389 346 430 365T494 420T517 501Q517 530 505 555T467 598T398 615Q363 615 329 599T256 552V631Q287 657 318 678T389 711T485 724Q555 724 604
694T678 617T703 515Q703 465 684 417T626 328T526 264T383 240ZM181 -26Q127 -26 103 1T79 88Q79 113 81 147T92 236T113 372T147 576L103 665Q149 695 193 710T275 726Q339 726 339 648Q339 634 334 598T319 512T299 406T280 296T265 196T259 122Q259 83 265
57T287 12Q237 -26 181 -26ZM604 -25Q565 -25 537 -11T485 40T435 142L383 274L544 340Q573 263 604 199T666 89T724 21Q713 9 692 -1T648 -18T604 -25Z" />
<glyph unicode="S" horiz-adv-x="724" d="M321 -25Q231 -25 170 -9T79 38T49 108Q49 133 61 158T96 200Q131 143 185 109T312 75Q378 75 423 97T469 166Q469 191 449 209T395 241T321 268T240 299T166 342T112 402T91 489Q91 547 119 591T197 665T315 710T459
726Q532 726 586 711T669 670T699 608Q699 559 666 533T585 507Q538 507 501 534T444 615Q368 607 321 579T274 510Q274 485 294 468T349 437T423 411T503 381T578 340T632 281T652 197Q652 144 626 103T553 34T448 -10T321 -25Z" />
<glyph unicode="T" horiz-adv-x="609" d="M284 -26Q229 -26 206 4T182 99Q182 137 190 205T217 377T260 627L436 593Q428 547 418 493T399 384T381 278T367 190T362 133Q362 91 369 62T389 12Q338 -26 284 -26ZM510 524Q462 524 415 532T320 550T222 559L67 526Q60
542 56 561T52 603Q52 660 87 687T182 715Q229 715 276 707T372 690T470 679L625 713Q632 698 636 678T640 636Q640 584 606 554T510 524Z" />
<glyph unicode="U" horiz-adv-x="818" d="M617 -26Q584 -26 562 -12T530 28T519 89Q519 113 522 136T531 180H523Q492 121 448 75T350 3T235 -24Q194 -24 165 -11T116 25T88 80T79 152Q79 173 81 201T91 274T111 392T144 576L99 665Q153 697 193 711T271 726Q335
726 335 648Q335 637 330 605T316 527T297 431T278 334T264 250T258 196Q258 151 273 128T328 105Q364 105 402 131T476 207T535 321Q527 345 523 377T519 444Q519 487 526 528T549 605T587 668T640 710T707 726Q729 726 750 721T788 706Q774 651 758 577T727 421T704
265T695 133Q695 50 720 12Q696 -8 671 -17T617 -26Z" />
<glyph unicode="V" horiz-adv-x="684" d="M261 -30Q197 -30 159 -6T104 73T87 222Q87 295 88 364T85 495T67 605T20 688Q70 726 126 726Q174 726 204 695T249 588T264 380Q264 316 264 269T263 189T261 132T260 90H272Q354 218 406 315T482 482T506 591Q506 619
501 642T484 688Q513 707 544 716T604 726Q643 726 663 702T684 632Q684 599 672 553T631 443T558 292T449 91L466 44Q442 23 408 6T335 -20T261 -30Z" />
<glyph unicode="W" horiz-adv-x="1029" d="M215 -30Q148 -30 122 16T95 162Q95 245 96 323T92 469T71 594T20 688Q71 726 129 726Q180 726 211 695T256 588T270 380Q270 316 270 269T270 189T270 132T269 90H281Q352 173 397 250T468 392T504 498T514 552Q514
569 507 587T491 623T476 654Q496 673 516 681T555 690Q597 690 620 665T643 593Q643 557 633 516T604 429T559 332T501 227Q460 156 425 107T357 28T290 -16T215 -30ZM643 -30Q589 -30 560 -7T517 61T499 173L461 654Q483 673 508 681T555 690L593 618L616 90H628Q706
218 755 315T827 482T850 591Q850 619 844 642T826 688Q856 707 886 716T947 726Q987 726 1008 702T1029 632Q1029 599 1017 553T976 443T905 292T800 91L822 44Q803 23 773 6T709 -20T643 -30Z" />
<glyph unicode="X" horiz-adv-x="788" d="M596 -30Q563 -30 537 -17T487 26T435 108L236 480Q215 521 191 551T139 603T73 639Q100 681 138 703T220 726Q254 726 279 713T329 670T381 587L580 215Q602 174 625 144T676 92T742 56Q716 14 679 -8T596 -30ZM111 -30Q72
-30 49 -4T25 64Q25 96 44 129T105 201T221 292L357 389L412 292Q310 223 263 164T216 58Q216 43 219 31T226 8Q201 -9 171 -19T111 -30ZM447 306L391 404Q494 474 541 533T588 638Q588 668 579 688Q604 705 633 715T693 726Q732 726 755 700T778 631Q778 601 760
568T700 496T584 405L447 306Z" />
<glyph unicode="Y" horiz-adv-x="822" d="M109 -242Q22 -242 -20 -211T-63 -127Q-63 -101 -51 -78T-25 -41Q-13 -57 6 -73T54 -99T125 -110Q166 -110 217 -92T321 -36T425 58T516 194T581 370T605 591Q605 619 600 642T582 688Q612 707 643 716T702 726Q741 726
761 702T782 633Q782 562 767 481T722 316T649 151T550 -1T425 -126T278 -211T109 -242ZM372 -30Q306 -30 264 -6T199 60T166 156T154 271T152 393T147 510T127 613T81 688Q130 726 187 726Q241 726 270 697T313 619T328 509T331 383T332 257T347 147T387 69T468
40L372 -30Z" />
<glyph unicode="Z" horiz-adv-x="692" d="M267 97L103 129L414 553L621 583L267 97ZM485 -30Q442 -30 402 -23T319 -3T223 31Q190 2 164 -10T105 -22Q68 -22 44 2T20 65Q20 118 60 152T165 186Q194 186 235 176T322 151T411 127T485 116L620 178Q633 151 639 130T645
88Q645 55 624 28T567 -14T485 -30ZM397 513Q289 513 223 526T128 569T98 647Q98 667 102 689T116 732Q155 716 201 701T295 675T386 656T462 646Q486 684 518 705T585 726Q628 726 652 704T677 642Q677 579 606 546T397 513Z" />
<glyph unicode="[" horiz-adv-x="432" d="M214 -157Q169 -157 138 -142T90 -88T74 15Q74 101 82 188T108 372T152 584Q172 671 199 718T266 782T365 800Q407 800 431 790T465 761T476 713Q476 706 476 693T471 668Q462 673 439 676T390 682T347 685Q321 620 300
533T265 347T242 149T234 -43Q251 -43 275 -40T322 -33T352 -26Q356 -38 357 -51T359 -72Q359 -111 326 -134T214 -157Z" />
<glyph unicode="\" horiz-adv-x="674" d="M445 -80Q465 -80 488 -74T524 -57Q477 81 423 283T308 756Q290 836 229 836Q208 836 186 830T150 813Q197 676 251 473T366 0Q384 -80 445 -80Z" />
<glyph unicode="]" horiz-adv-x="432" d="M229 801Q274 801 305 786T353 732T369 629Q369 543 361 456T335 272T291 60Q271 -27 244 -74T177 -138T78 -156Q36 -156 12 -146T-22 -117T-33 -69Q-33 -62 -33 -49T-28 -24Q-19 -29 4 -32T53 -38T96 -41Q122 24 143
111T178 297T201 495T209 687Q192 687 168 684T121 677T91 670Q87 682 86 695T84 716Q84 755 117 778T229 801Z" />
<glyph unicode="^" horiz-adv-x="683" d="M191 451Q178 451 163 461T134 487T106 520L350 880Q371 910 387 924T417 938H473Q487 938 498 925T521 880L650 520Q633 503 613 487T575 461T543 451Q528 451 517 464T495 509L394 787L442 780L258 509Q237 478 222
465T191 451Z" />
<glyph unicode="_" horiz-adv-x="671" d="M65 -201Q10 -201 -10 -187T-30 -137Q-30 -113 -24 -86T-6 -27Q22 -37 55 -42T125 -48Q167 -48 211 -43T300 -31T391 -19T481 -13Q537 -13 557 -26T577 -78Q577 -100 571 -127T552 -187Q525 -177 492 -172T422 -166Q381
-166 337 -171T246 -183T155 -195T65 -201Z" />
<glyph unicode="`" horiz-adv-x="600" d="M300 660Q278 660 252 670T194 692T124 715T37 725Q33 741 30 757T27 791Q27 867 88 867Q118 867 146 851T204 810T270 763T349 726Q346 695 333 678T300 660Z" />
<glyph unicode="a" horiz-adv-x="747" d="M239 -25Q184 -25 142 4T77 86T54 210Q54 295 83 366T165 490T289 571T447 600Q491 600 532 592Q538 580 541 562T544 523Q474 523 415 501T313 439T247 347T223 235Q223 179 246 148T312 117Q394 117 444 217T517 523Q538
549 564 562T622 575Q653 575 670 558T688 509Q688 481 678 434T654 330T630 211T619 92Q619 38 645 16Q620 -5 594 -15T540 -25Q496 -25 472 1T448 75Q448 85 449 96T453 121L443 126Q411 54 358 15T239 -25Z" />
<glyph unicode="b" horiz-adv-x="744" d="M247 -25Q190 -25 153 -9T99 44T82 138Q82 164 86 205T101 308T126 452T162 644L111 713Q146 739 189 756T270 774Q310 774 326 759T343 709Q343 673 326 605T288 450L298 445Q331 518 385 559T505 600Q561 600 602 572T667
492T690 370Q690 283 658 211T566 86T425 4T247 -25ZM227 63Q289 67 342 90T436 151T498 236T521 340Q521 396 498 427T432 458Q391 458 355 431T289 351T244 226T227 63Z" />
<glyph unicode="c" horiz-adv-x="631" d="M319 -25Q197 -25 128 42T58 228Q58 309 86 376T165 494T284 572T433 600Q510 600 555 573T601 499Q601 461 574 436T505 411Q466 411 432 432T378 495Q336 478 302 438T247 343T227 224Q227 149 253 107T328 64Q366 64
396 84T445 140T466 217Q517 217 545 198T573 141Q573 95 539 57T447 -3T319 -25Z" />
<glyph unicode="d" horiz-adv-x="749" d="M238 -25Q183 -25 141 4T76 86T53 210Q53 289 82 356T164 472T288 548T446 575Q493 575 531 567Q537 553 540 536T543 498Q473 498 415 479T313 423T246 339T222 235Q222 179 245 148T311 117Q341 117 370 133T426 182T469
257L462 117L441 126Q410 54 357 15T238 -25ZM544 -25Q494 -25 472 4T450 94Q450 112 454 148T465 233T482 336T500 446T519 553T535 645L484 714Q519 740 562 757T643 775Q682 775 698 760T715 710Q715 682 706 636T683 529T655 399T631 255T621 106Q621 68 629
49T648 16Q626 -5 598 -15T544 -25Z" />
<glyph unicode="e" horiz-adv-x="657" d="M306 -25Q189 -25 123 40T57 223Q57 304 85 373T165 493T286 572T438 600Q525 600 573 562T621 456Q621 385 571 334T428 257T203 232L216 299Q339 302 406 340T473 444Q473 471 456 487T411 504Q374 504 341 482T281
419T241 328T226 219Q226 147 252 106T324 64Q380 64 416 103T455 205Q507 205 534 187T562 130Q562 88 528 53T436 -3T306 -25Z" />
<glyph unicode="f" horiz-adv-x="437" d="M177 -200Q133 -200 108 -173T83 -98Q83 -46 107 87T178 446Q174 479 172 509T169 566Q169 639 191 688T253 762T348 787Q396 787 428 760T460 692Q460 652 433 627T362 601Q340 601 320 607T283 626L270 617L337 393Q320
324 306 253T281 117T264 0T258 -83Q258 -138 286 -160Q225 -200 177 -200ZM81 333Q74 354 74 374Q74 403 88 422T127 450T186 460Q222 460 262 464T340 476T410 496Q417 475 417 455Q417 427 403 408T364 379T305 369Q270 369 230 365T152 353T81 333Z" />
<glyph unicode="g" horiz-adv-x="690" d="M164 -237Q78 -237 30 -210T-19 -133Q-19 -105 -3 -78T37 -36Q61 -75 98 -93T181 -112Q221 -112 265 -95T351 -35T424 79T474 261T487 523Q513 552 538 564T593 577Q652 577 652 519Q652 407 636 298T585 93T493 -78T355
-194T164 -237ZM212 8Q155 8 113 36T46 115T22 235Q22 314 50 381T130 497T254 573T416 600Q462 600 501 592Q507 578 510 561T513 523Q443 523 384 502T282 444T215 357T191 249Q191 189 216 155T285 121Q307 121 333 132T387 170T436 242T472 357T486 523L488
151H425Q393 83 336 46T212 8Z" />
<glyph unicode="h" horiz-adv-x="753" d="M167 -25Q114 -25 92 1T69 78Q69 101 75 147T92 253T116 382T142 518T167 645L116 714Q151 740 193 757T275 775Q314 775 330 760T347 710Q347 683 337 640T313 538T284 406L294 401Q334 472 380 515T475 579T573 600Q635
600 666 570T697 474Q697 432 687 386T665 290T643 191T633 92Q633 67 637 47T651 16Q607 -25 559 -25Q507 -25 485 1T462 78Q462 120 471 166T492 257T513 343T523 414Q523 441 513 456T478 471Q445 471 404 444T326 366T265 246T241 92Q241 67 245 47T258 16Q215
-25 167 -25Z" />
<glyph unicode="i" horiz-adv-x="388" d="M178 -25Q126 -25 103 1T80 78Q80 100 85 137T101 225T124 337T152 467L101 538Q138 565 182 582T265 600Q302 600 317 585T333 533Q333 523 327 497T312 432T292 349T273 258T258 169T252 92Q252 66 258 47T278 15Q231
-25 178 -25ZM250 667Q209 667 184 686T158 740Q158 770 175 791T220 823T275 835Q316 835 341 816T367 763Q367 735 351 713T309 679T250 667Z" />
<glyph unicode="j" horiz-adv-x="397" d="M47 -210Q-5 -210 -29 -185T-54 -124Q-54 -84 -27 -61T44 -38Q71 -38 90 -49T124 -69L134 -55Q112 -34 101 -17T85 21T81 66Q81 82 87 123T103 222T124 343T146 467L95 538Q131 565 175 582T259 600Q296 600 311 585T326
533Q326 522 322 491T310 417T293 322T273 215T253 107T232 7Q221 -51 197 -100T136 -180T47 -210ZM243 677Q203 677 177 694T151 741Q151 767 168 786T213 815T268 825Q308 825 334 808T360 762Q360 737 344 718T302 688T243 677Z" />
<glyph unicode="k" horiz-adv-x="697" d="M210 149L218 231L322 314Q369 353 406 388T466 457T488 529Q488 539 486 549T480 571Q506 586 532 593T582 600Q621 600 645 577T669 515Q669 459 618 404T454 285L210 149ZM175 -25Q126 -25 104 4T82 94Q82 112 86 148T97
233T113 336T132 446T151 553T167 645L116 714Q151 740 193 757T275 775Q314 775 330 760T347 710Q347 682 338 636T314 529T286 399T263 255T253 106Q253 68 260 49T280 16Q257 -5 229 -15T175 -25ZM562 -25Q514 -25 481 5T410 105L323 264L465 354L555 190Q576
148 606 113T692 55Q667 15 635 -5T562 -25Z" />
<glyph unicode="l" horiz-adv-x="381" d="M175 -25Q126 -25 104 4T82 94Q82 112 86 148T97 233T113 336T132 446T151 553T167 645L116 714Q151 740 193 757T275 775Q314 775 330 760T347 710Q347 690 340 653T323 567T300 461T278 344T260 223T253 106Q253 68
260 49T280 16Q257 -5 229 -15T175 -25Z" />
<glyph unicode="m" horiz-adv-x="1126" d="M172 -25Q120 -25 97 1T74 78Q74 97 78 131T90 210T108 302T127 395T146 478L97 546Q132 569 173 584T255 599Q292 599 309 582T326 531Q326 505 319 476T300 422L310 417Q367 518 430 559T566 600Q623 600 654 570T686
483Q686 470 684 455T677 422L687 417Q745 518 809 559T946 600Q1008 600 1039 570T1070 474Q1070 432 1060 386T1038 290T1016 191T1006 92Q1006 67 1010 47T1024 16Q980 -25 933 -25Q880 -25 857 0T834 73Q834 117 843 163T865 256T886 342T896 412Q896 440 886
455T851 471Q818 471 780 444T706 366T649 246T626 92Q626 67 630 47T644 16Q600 -25 552 -25Q500 -25 477 0T454 73Q454 117 463 163T485 256T507 342T516 412Q516 440 506 455T471 471Q438 471 400 444T326 366T269 246T246 92Q246 67 250 47T264 16Q220 -25
172 -25Z" />
<glyph unicode="n" horiz-adv-x="758" d="M172 -25Q120 -25 97 1T74 78Q74 100 80 145T97 247T121 365T146 478L97 546Q132 569 173 584T255 599Q292 599 309 582T326 531Q326 505 319 476T300 422L310 417Q365 513 433 556T578 600Q641 600 671 570T702 474Q702
432 693 386T671 290T648 191T638 92Q638 40 656 16Q612 -25 564 -25Q513 -25 490 1T467 78Q467 120 476 166T497 257T518 343T528 414Q528 442 518 456T483 471Q453 471 421 452T357 397T301 315T261 211T246 92Q246 39 264 16Q220 -25 172 -25Z" />
<glyph unicode="o" horiz-adv-x="721" d="M320 -25Q240 -25 182 7T91 99T59 238Q59 318 86 384T162 498T279 573T427 600Q446 600 463 599T501 592Q506 578 508 561T511 523Q423 523 360 485T262 381T228 234Q228 148 259 106T344 64Q391 64 427 89T488 162T519
274Q480 297 461 329T442 403Q442 438 456 466T496 510T552 526Q605 526 637 482T670 364Q670 282 643 212T568 88T457 5T320 -25Z" />
<glyph unicode="p" horiz-adv-x="765" d="M320 0Q274 0 234 8Q228 21 225 39T222 77Q317 77 389 111T503 204T544 340Q544 396 521 427T454 458Q411 458 372 415T300 293T246 106L254 477L325 443Q356 517 409 558T527 600Q583 600 625 571T689 489T712 365Q712
286 683 219T602 103T477 27T320 0ZM155 -200Q107 -200 85 -174T62 -92Q62 -73 68 -20T87 110T114 279T147 470L96 539Q134 568 176 584T255 600Q294 600 310 585T327 535Q327 507 318 461T294 354T266 224T243 80T233 -70Q233 -102 239 -122T260 -159Q239 -178
211 -189T155 -200Z" />
<glyph unicode="q" horiz-adv-x="737" d="M474 -199Q434 -199 418 -184T402 -134Q402 -99 418 -32T453 121L443 126Q411 54 358 15T239 -25Q184 -25 142 4T77 86T54 210Q54 295 83 366T165 490T289 571T447 600Q492 600 532 592Q538 580 541 562T544 523Q474 523
415 501T313 439T247 347T223 235Q223 179 246 148T312 117Q353 117 389 145T455 227T500 356T517 523Q539 550 565 562T622 575Q653 575 670 558T688 509Q688 480 678 425T652 293T618 124T582 -69L633 -138Q598 -164 555 -181T474 -199Z" />
<glyph unicode="r" horiz-adv-x="524" d="M172 -25Q121 -25 98 2T74 83Q74 102 80 145T97 244T120 362T147 478L97 546Q128 569 160 584T224 599Q262 599 278 580T295 531Q295 497 285 463T260 390L270 385Q296 454 324 502T385 575T461 600Q502 600 525 578T548
517Q548 473 519 444T433 415Q396 415 362 389T302 318T261 215T246 92Q246 39 264 16Q220 -25 172 -25Z" />
<glyph unicode="s" horiz-adv-x="634" d="M276 -25Q194 -25 142 -11T66 30T41 90Q41 113 54 137T93 179Q119 131 162 104T266 76Q295 76 323 84T371 109T391 153Q391 175 368 188T309 213T233 238T156 272T97 322T74 400Q74 451 98 488T166 550T265 587T386 600Q482
600 539 571T596 495Q596 452 566 429T495 406Q456 406 424 431T372 505Q316 499 279 477T241 420Q241 397 264 383T323 357T399 332T476 298T535 247T558 167Q558 119 534 83T468 23T377 -13T276 -25Z" />
<glyph unicode="t" horiz-adv-x="457" d="M214 -25Q188 -25 166 -17T131 16T117 86Q117 126 125 174T146 274T172 375T193 465T201 532Q201 555 197 582T182 638Q210 664 249 681T330 698Q367 698 382 682T398 629Q398 606 388 567T361 477T329 366T302 240T290
106L337 27Q309 1 276 -12T214 -25ZM146 429Q112 429 99 440T86 477Q86 490 90 506T102 538Q121 532 146 529T195 526Q253 526 309 537T422 548Q457 548 469 537T482 499Q482 487 478 471T466 439Q447 445 422 448T374 451Q316 451 260 440T146 429Z" />
<glyph unicode="u" horiz-adv-x="755" d="M233 -25Q152 -25 113 15T74 137Q74 178 81 223T97 313T113 399T120 474Q120 500 116 522T103 560Q136 578 172 589T229 600Q266 600 282 584T299 531Q299 510 293 473T278 393T260 305T244 225T238 169Q238 123 257 101T315
78Q364 78 409 114T480 211L487 55L440 78Q416 47 383 24T312 -12T233 -25ZM547 -25Q497 -25 473 2T449 88Q449 112 457 160T480 284T520 463L470 538Q503 560 532 573T586 593T634 600Q671 600 686 585T701 533Q701 523 696 497T681 432T662 349T643 258T627 169T621
92Q621 37 647 15Q600 -25 547 -25Z" />
<glyph unicode="v" d="M273 -25Q214 -25 179 -5T127 62T111 186Q111 247 112 303T110 409T94 497T54 564Q100 600 154 600Q196 600 223 576T264 492T278 329Q278 285 278 248T277 180T276 126T275 83H285Q353 183 396 262T459 397T480 486Q480 528 461 564Q486
581 515 590T574 600Q611 600 630 580T649 520Q649 494 639 460T606 377T545 258T452 93L472 49Q449 28 415 11T344 -15T273 -25Z" />
<glyph unicode="w" horiz-adv-x="940" d="M230 -25Q166 -25 140 16T113 155Q113 221 113 282T111 396T95 492T54 564Q100 600 154 600Q196 600 223 576T264 492T278 329Q278 285 278 248T277 180T277 126T276 83H286Q338 142 372 200T425 309T452 396T460 446Q460
461 456 476T447 506T436 534Q451 551 467 560T500 570Q538 570 558 549T578 485Q578 443 563 391T521 283T463 171Q434 121 407 85T354 24T297 -12T230 -25ZM581 -25Q533 -25 506 -5T466 56T447 161L416 539Q439 557 461 563T500 570L533 511L554 83H564Q624 183
661 262T717 397T735 486Q735 528 716 564Q741 581 770 590T829 600Q866 600 885 580T904 520Q904 494 895 460T866 377T813 258T731 93L751 49Q731 28 703 11T642 -15T581 -25Z" />
<glyph unicode="x" horiz-adv-x="688" d="M499 -25Q471 -25 449 -15T407 21T363 89L202 384Q186 416 167 441T124 486T65 519Q91 560 125 580T202 600Q231 600 253 590T295 554T339 485L499 190Q515 159 534 133T578 88T636 55Q611 15 577 -5T499 -25ZM103 -25Q68
-25 46 -2T24 60Q24 89 41 119T97 183T197 257L302 328L356 235Q279 184 242 138T205 54Q205 41 207 31T213 11Q187 -6 159 -15T103 -25ZM389 247L335 340Q412 392 449 437T487 521Q487 534 485 544T479 564Q505 582 533 591T588 601Q624 601 645 578T667 515Q667
487 650 457T596 393T495 319L389 247Z" />
<glyph unicode="y" horiz-adv-x="695" d="M93 -200Q16 -200 -23 -173T-62 -97Q-62 -72 -50 -50T-24 -16Q-14 -31 2 -44T43 -67T103 -76Q138 -76 180 -61T267 -14T353 66T427 178T479 325T499 507Q499 520 498 536T495 564Q517 581 542 590T590 600Q628 600 649
582T670 523Q670 460 653 383T601 224T516 67T402 -69T261 -164T93 -200ZM301 -25Q236 -25 199 0T143 69T120 167T115 278T112 391T97 492T55 564Q100 600 155 600Q202 600 228 577T266 513T280 424T282 321T282 218T293 128T325 65T391 41L301 -25Z" />
<glyph unicode="z" horiz-adv-x="609" d="M245 85L88 116L347 445L542 470L245 85ZM417 -25Q358 -25 308 -10T203 25Q175 2 151 -8T99 -18Q60 -18 40 7T19 64Q19 91 33 116T77 158T151 175Q175 175 209 166T281 145T355 124T417 115L539 168Q548 148 554 127T560
83Q560 51 541 27T489 -11T417 -25ZM322 403Q231 404 180 417T106 458T84 528Q84 544 87 561T95 605Q128 591 168 578T250 555T326 538T386 530Q401 561 430 580T494 600Q539 600 562 578T585 520Q585 486 566 463T511 427T428 409T322 403Z" />
<glyph unicode="{" horiz-adv-x="409" d="M192 -157Q122 -157 87 -123T52 -18Q52 20 62 73T92 185T145 304Q132 299 117 299Q92 299 74 314T56 353Q56 375 74 391T116 407Q142 407 160 390Q156 418 154 455T150 529T148 591Q148 659 165 700T210 764T274 793T344
800Q404 800 431 778T458 713Q458 706 457 692T453 668Q445 673 421 676T370 682T326 685Q311 599 297 543T267 450T232 390T189 347Q217 316 232 273T247 182Q247 178 246 169T242 138T232 72T211 -43Q228 -43 252 -40T299 -33T330 -26Q333 -38 334 -51T336 -72Q336
-111 301 -134T192 -157Z" />
<glyph unicode="|" horiz-adv-x="471" d="M127 -180Q88 -180 73 -164T57 -112L252 745L234 842Q263 860 297 870T364 880Q402 880 418 865T434 812L239 -45L257 -142Q228 -159 193 -169T127 -180Z" />
<glyph unicode="}" horiz-adv-x="409" d="M228 801Q298 801 333 767T368 662Q368 624 358 571T328 459T275 340Q288 345 303 345Q328 345 346 330T364 291Q364 269 346 253T304 237Q278 237 260 254Q264 226 266 189T270 115T272 53Q272 -15 255 -56T210 -120T146
-149T76 -156Q16 -156 -11 -134T-38 -69Q-38 -62 -37 -48T-33 -24Q-25 -29 -1 -32T50 -38T94 -41Q109 45 123 101T153 194T188 254T231 297Q203 328 188 371T173 462Q173 466 174 475T178 506T188 572T209 687Q192 687 168 684T121 677T90 670Q87 682 86 695T84
716Q84 755 119 778T228 801Z" />
<glyph unicode="~" horiz-adv-x="719" d="M183 271Q145 271 132 285T118 330Q118 347 124 368T142 415Q205 415 264 424T379 445T481 465T564 474Q601 474 614 460T628 415Q628 399 622 377T604 330Q542 330 482 321T367 301T266 280T183 271Z" />
<glyph unicode="&#xa0;" horiz-adv-x="309" />
<glyph unicode="&#xa1;" horiz-adv-x="398" d="M223 308Q257 308 269 288T281 237Q281 222 277 194T266 130T254 58T244 -11T240 -67Q240 -86 244 -109T262 -145Q235 -173 198 -186T117 -200Q65 -200 43 -173T21 -104Q21 -77 29 -38T52 46T82 134T113 215T139
276Q157 292 181 300T223 308ZM265 600Q305 600 331 574T358 509Q358 479 344 455T304 415T249 399Q209 399 183 425T156 490Q156 518 170 543T210 584T265 600Z" />
<glyph unicode="&#xa2;" horiz-adv-x="570" d="M291 74Q181 74 119 132T57 293Q57 362 81 419T150 517T255 582T386 605Q455 605 497 580T539 512Q539 477 515 455T454 432Q418 432 388 451T340 507Q305 494 277 462T232 386T215 291Q215 227 238 192T301 156Q333
156 359 173T400 219T417 284Q466 284 491 267T517 215Q517 175 487 143T405 93T291 74ZM246 -71Q226 -71 203 -66T165 -52Q177 -14 187 28T211 118H339Q334 93 330 67T321 13Q306 -68 246 -71ZM305 552Q314 589 323 627T340 706Q359 786 419 786Q440 786 463 780T499
763Q483 718 467 665T433 552H305Z" />
<glyph unicode="&#xa3;" horiz-adv-x="638" d="M443 -30Q407 -30 373 -23T303 -3T220 30Q188 2 162 -10T104 -22Q68 -22 45 2T21 63Q21 116 61 149T163 183Q195 183 231 173T307 148T380 124T443 113L575 175Q588 147 594 127T600 86Q600 53 579 27T523 -14T443
-30ZM133 76L171 471Q183 594 249 648T423 703Q526 703 581 673T636 584Q636 561 629 537T609 494Q569 516 504 528T367 541L283 74L133 76ZM126 288Q89 288 76 298T63 334Q63 346 67 360T80 391Q100 385 126 383T178 380Q239 380 298 390T418 400Q455 400 468
390T481 355Q481 342 478 328T465 298Q445 304 418 306T368 309Q327 309 287 304T206 293T126 288Z" />
<glyph unicode="&#xa4;" horiz-adv-x="679" d="M321 132Q224 132 170 182T116 312Q116 380 152 431T252 510T401 539Q486 539 532 489T579 359Q579 312 561 271T508 198T426 150T321 132ZM129 20Q115 20 96 28T61 49T35 74Q68 115 103 161T177 261L289 207Q268
175 247 142T204 74Q186 47 168 34T129 20ZM470 20Q431 20 404 74Q388 109 372 142T340 207L467 251Q496 200 522 156T573 74Q562 62 544 49T505 28T470 20ZM326 236Q362 236 385 255T420 305T433 369Q433 388 427 403T403 426T352 435Q343 435 334 435T313 430Q287
404 275 373T263 313Q263 280 279 258T326 236ZM231 420Q211 456 193 486T159 543T124 597Q135 610 153 622T191 642T227 651Q267 651 293 598Q304 575 313 555T332 516T352 475L231 420ZM524 421L404 464Q425 497 446 530T490 598Q525 651 564 651Q581 651 599
643T634 622T658 597Q628 560 595 516T524 421Z" />
<glyph unicode="&#xa5;" horiz-adv-x="656" d="M321 214Q251 214 219 252T182 378Q177 444 171 498T149 595T99 664Q148 700 208 700Q254 700 281 673T323 597T343 484T352 343H360Q386 373 409 409T450 481T478 548T488 603Q488 635 466 664Q492 681 523 690T580
700Q620 700 639 682T659 629Q659 580 637 524T579 413T497 313T407 241T321 214ZM124 168Q87 168 74 178T61 214Q61 226 65 241T78 271Q98 265 125 263T175 260Q201 260 227 262T278 267L266 182Q231 178 196 173T124 168ZM302 -25Q254 -25 232 -3T209 68Q209
94 214 128T232 210T265 326H442Q419 249 404 191T388 83Q388 61 393 45T408 11Q382 -7 357 -16T302 -25ZM148 319Q111 319 98 329T85 365Q85 377 88 391T101 422Q122 416 149 413T199 410Q224 410 248 412T297 417L286 332Q252 328 218 324T148 319ZM590 178Q571
184 545 186T494 188Q467 188 440 186T385 182L397 267Q433 272 470 276T544 280Q581 280 594 270T608 235Q608 223 604 208T590 178ZM613 329Q594 334 568 336T517 339Q493 339 469 338T421 334L438 419Q470 424 502 427T567 431Q604 431 617 421T631 386Q631
373 627 359T613 329Z" />
<glyph unicode="&#xa6;" horiz-adv-x="471" d="M189 465L252 745L234 842Q263 860 297 870T364 880Q402 880 418 865T434 812L355 465H189ZM127 -180Q88 -180 73 -164T57 -112L136 236H303L239 -45L257 -142Q228 -159 193 -169T127 -180Z" />
<glyph unicode="&#xa7;" horiz-adv-x="717" d="M441 86L358 187Q405 199 434 222T463 279Q463 307 439 325T375 357T291 387T207 426T143 486T118 579Q118 631 144 671T214 739T315 781T430 795Q517 795 573 779T658 735T686 667Q686 642 674 617T641 575Q608
630 558 663T438 696Q380 696 340 676T299 610Q299 582 324 564T388 531T471 499T555 458T620 395T645 300Q645 245 619 203T547 131T441 86ZM292 -187Q205 -187 148 -171T64 -126T36 -59Q36 -34 48 -9T81 33Q114 -22 164 -55T284 -88Q342 -88 382 -67T423 -2Q423
26 398 44T334 77T251 109T167 150T102 213T77 308Q77 361 100 401T165 470T260 516L359 420Q314 408 286 385T258 329Q258 301 283 283T347 251T431 221T514 182T579 122T604 29Q604 -22 578 -62T508 -131T408 -173T292 -187Z" />
<glyph unicode="&#xa8;" horiz-adv-x="600" d="M479 667Q441 667 418 686T394 740Q394 770 410 791T451 823T501 835Q536 835 558 816T580 763Q580 720 550 694T479 667ZM191 667Q157 667 135 686T113 740Q113 770 128 791T167 823T215 835Q252 835 276 816T300
763Q300 735 285 713T246 679T191 667Z" />
<glyph unicode="&#xa9;" horiz-adv-x="896" d="M424 150Q359 150 299 171T190 235T113 342T85 493Q85 614 141 704T299 845T537 896Q584 896 607 888T639 862T650 818Q733 773 772 700T811 546Q811 448 778 374T688 250T564 175T424 150ZM423 213Q501 213 562
241T667 316T733 423T756 543Q756 590 739 638T688 726T602 790T480 815Q389 815 315 779T198 672T154 494Q154 398 191 336T290 243T423 213ZM442 321Q366 321 323 362T280 477Q280 530 298 574T348 650T423 701T517 719Q562 719 589 703T616 660Q616 637 600
623T559 608Q535 608 514 620T480 659Q450 646 427 619T390 555T376 475Q376 425 394 398T445 370Q470 370 490 383T522 418T535 469Q564 469 579 459T595 425Q595 396 575 373T519 335T442 321Z" />
<glyph unicode="&#xaa;" horiz-adv-x="573" d="M204 333Q146 333 111 377T75 495Q75 577 113 639T216 736T356 770Q387 770 410 764Q414 755 416 739T418 702Q354 702 311 679T245 617T223 532Q223 498 237 480T276 461Q325 461 353 519T393 702Q434 753 493 753Q547
753 547 693Q547 675 541 645T526 578T511 506T505 438Q505 415 511 397T529 370Q505 352 481 343T430 333Q392 333 372 355T351 415Q351 421 351 426T352 437L345 440Q326 390 289 362T204 333Z" />
<glyph unicode="&#xab;" horiz-adv-x="661" d="M486 25Q460 57 432 95T378 170T338 238T322 288Q322 312 337 338T383 396T456 465T557 549Q579 549 597 540T625 516T635 481Q635 457 618 435T572 392T509 349T439 300Q483 256 513 222T559 160T576 101Q576 81
566 64T535 36T486 25ZM204 25Q178 57 150 95T96 170T56 238T40 288Q40 312 56 338T101 396T175 465T275 549Q298 549 315 540T343 516T353 481Q353 457 336 435T291 392T228 349T158 300Q202 256 232 222T278 160T295 101Q295 81 284 64T253 36T204 25Z" />
<glyph unicode="&#xac;" horiz-adv-x="719" d="M483 86Q455 86 447 103T447 166L491 444L626 396L582 110Q552 98 527 92T483 86ZM201 300Q156 300 139 311T121 350Q121 368 127 392T145 445H546Q592 445 609 435T626 396L602 300H201Z" />
<glyph unicode="&#xad;" horiz-adv-x="518" d="M118 202Q93 202 77 215T61 266Q61 310 85 360Q99 357 110 356T135 354Q171 354 205 362T272 381T338 400T405 408Q431 408 447 395T463 344Q463 324 457 299T438 250Q426 254 414 255T389 256Q352 256 318 248T252
229T186 210T118 202Z" />
<glyph unicode="&#xae;" horiz-adv-x="896" d="M424 150Q359 150 299 171T190 235T113 342T85 493Q85 614 141 704T299 845T537 896Q584 896 607 888T639 862T650 818Q733 773 772 700T811 546Q811 448 778 374T688 250T564 175T424 150ZM423 213Q501 213 562
241T667 316T733 423T756 543Q756 590 739 638T688 726T602 790T480 815Q389 815 315 779T198 672T154 494Q154 398 191 336T290 243T423 213ZM448 461Q423 461 404 466T365 485L370 533Q381 525 395 522T422 518Q451 518 473 528T507 556T519 600Q519 614 513
628T492 651T456 660Q438 660 420 652T380 626V668Q397 682 413 693T451 711T502 718Q539 718 565 702T604 661T618 607Q618 581 608 555T576 508T524 474T448 461ZM341 320Q312 320 300 334T287 381Q287 394 288 412T294 459T305 532T323 639L300 687Q324 702
347 710T391 719Q425 719 425 678Q425 670 422 651T414 606T404 550T393 491T385 438T382 399Q382 378 385 365T397 340Q370 320 341 320ZM565 321Q544 321 529 328T502 355T475 409L448 480L534 514Q549 473 565 439T597 381T629 345Q622 338 611 333T588 325T565
321Z" />
<glyph unicode="&#xaf;" horiz-adv-x="600" d="M147 692Q97 692 97 743Q97 764 103 787T123 837Q134 833 155 829T193 825Q238 825 285 829T382 833Q458 833 458 771Q458 752 455 737T442 704Q433 707 413 709T373 712Q319 712 259 702T147 692Z" />
<glyph unicode="&#xb0;" horiz-adv-x="486" d="M262 258Q173 258 121 308T69 443Q69 511 101 562T193 643T329 672Q341 672 356 670T382 663Q385 660 386 653T389 636Q442 625 469 587T496 487Q496 423 465 371T381 289T262 258ZM266 354Q292 354 311 370T342
416T353 482Q353 556 286 556Q278 556 270 555T252 550Q234 532 223 499T211 434Q211 397 226 376T266 354Z" />
<glyph unicode="&#xb1;" horiz-adv-x="722" d="M312 120Q284 120 276 137T275 200L340 601Q400 625 438 625Q467 625 474 608T475 545L411 144Q380 132 355 126T312 120ZM202 300Q157 300 140 311T122 350Q122 368 128 392T146 445H547Q593 445 610 435T627 396Q627
358 603 300H202ZM129 -154Q84 -154 67 -143T49 -104Q49 -86 55 -62T73 -9H474Q520 -9 537 -19T554 -58Q554 -96 530 -154H129Z" />
<glyph unicode="&#xb2;" horiz-adv-x="479" d="M217 359L98 380Q175 414 218 444T278 501T295 553Q295 576 282 593T241 610Q216 610 194 593T163 531Q131 535 113 552T94 596Q94 647 144 678T274 710Q322 710 358 693T414 647T435 583Q435 540 414 504T344 433T217
359ZM126 272Q97 272 78 291T59 339Q59 375 86 398T158 421Q175 421 200 414T252 398T305 381T350 374L448 427Q457 406 460 390T464 357Q464 322 431 297T350 272Q308 272 274 282T207 305Q166 272 126 272Z" />
<glyph unicode="&#xb3;" horiz-adv-x="415" d="M181 272Q120 272 84 290T48 340Q48 364 64 379T104 394Q127 394 149 378T186 333Q224 333 247 350T271 395Q271 424 246 440T175 457L176 505Q221 505 249 522T277 568Q277 592 262 604T219 617Q189 617 168 596T139
539Q110 542 94 558T77 602Q77 650 122 680T240 710Q313 710 355 681T397 600Q397 562 375 533T311 488Q352 475 373 451T395 395Q395 358 369 330T294 287T181 272Z" />
<glyph unicode="&#xb4;" horiz-adv-x="600" d="M126 660Q106 660 94 677T77 726Q121 740 156 763T221 810T280 850T338 866Q399 866 399 791Q399 774 397 757T389 725Q341 725 303 715T232 693T174 670T126 660Z" />
<glyph unicode="&#xb5;" horiz-adv-x="755" d="M136 -200Q89 -200 66 -174T43 -92Q43 -73 49 -20T68 110T95 279T128 470L77 539Q115 568 158 584T236 600Q275 600 291 585T308 535Q308 516 301 477T284 391T264 296T246 210T238 154Q238 78 315 78Q364 78 409
114T480 211L487 55L440 78Q429 54 405 34T350 3T284 -5T217 21Q208 -46 216 -93T241 -159Q221 -178 193 -189T136 -200ZM547 -25Q497 -25 473 2T449 88Q449 112 457 160T480 284T520 463L470 538Q503 560 532 573T586 593T634 600Q671 600 686 585T701 533Q701
523 696 497T681 432T662 349T643 258T627 169T621 92Q621 37 647 15Q600 -25 547 -25Z" />
<glyph unicode="&#xb6;" horiz-adv-x="641" d="M394 -95Q335 -95 311 -59T286 34Q286 78 299 130T334 236T378 337T422 422H402Q368 362 324 333T228 304Q176 304 142 327T90 389T72 473Q72 519 90 564T143 648T232 710T356 734Q391 734 430 725T505 693T562 629T585
522Q585 480 571 423T538 299T505 162T491 21Q491 -4 497 -23T517 -54Q486 -74 454 -84T394 -95Z" />
<glyph unicode="&#xb7;" horiz-adv-x="333" d="M139 196Q99 196 73 222T46 287Q46 317 60 341T99 381T155 397Q195 397 221 371T248 306Q248 278 234 253T194 212T139 196Z" />
<glyph unicode="&#xb8;" horiz-adv-x="600" d="M162 -287Q101 -287 64 -264T27 -203Q27 -178 44 -158T91 -126T158 -114Q138 -124 127 -141T115 -182Q115 -202 127 -213T162 -225Q195 -225 215 -206T236 -156Q236 -78 157 -39Q242 -39 292 -70T342 -156Q342 -192
318 -221T254 -269T162 -287Z" />
<glyph unicode="&#xb9;" horiz-adv-x="380" d="M229 272Q184 272 163 293T142 360Q142 380 145 407T153 462T163 515T172 557Q155 557 137 569T107 604T92 661Q147 668 182 680T243 701T297 710Q347 710 347 654Q347 636 340 605T324 535T307 455T300 377Q300
353 304 333T317 296Q271 272 229 272Z" />
<glyph unicode="&#xba;" horiz-adv-x="521" d="M272 333Q183 333 131 384T78 520Q78 593 111 649T204 738T338 770Q351 770 365 769T393 763Q398 753 400 739T402 708Q352 705 312 681T249 613T226 514Q226 464 245 437T302 410Q347 410 375 448T404 546Q404 582
394 611T359 665Q372 684 392 694T436 705Q480 705 503 671T526 583Q526 512 495 455T407 366T272 333Z" />
<glyph unicode="&#xbb;" horiz-adv-x="670" d="M185 560Q211 528 239 490T293 415T333 347T349 297Q349 273 334 247T288 189T215 120T114 36Q92 36 74 45T46 69T36 104Q36 128 53 150T99 193T162 236T232 285Q188 329 158 363T112 425T95 484Q95 504 105 521T136
549T185 560ZM467 560Q493 528 521 490T575 415T615 347T631 297Q631 273 615 247T570 189T496 120T396 36Q373 36 356 45T328 69T318 104Q318 128 335 150T380 193T443 236T513 285Q469 329 439 363T393 425T376 484Q376 504 387 521T418 549T467 560Z" />
<glyph unicode="&#xbc;" horiz-adv-x="1084" d="M229 272Q184 272 163 293T142 360Q142 380 145 407T153 462T163 515T172 557Q155 557 137 569T107 604T92 661Q147 668 182 680T243 701T297 710Q347 710 347 654Q347 636 340 605T324 535T307 455T300 377Q300
353 304 333T317 296Q271 272 229 272ZM355 -40Q335 -40 314 -34T280 -17Q327 68 381 176T497 419T625 716Q657 796 718 796Q739 796 760 790T794 773Q724 649 638 467T449 40Q415 -40 355 -40ZM743 35Q683 35 651 54T618 110Q618 128 630 152T662 205T699 262T730
319T743 373Q743 389 738 400Q754 406 776 410T812 415Q891 415 891 332Q891 289 853 235T737 121H910L901 56Q870 48 826 42T743 35ZM934 -23Q896 -23 876 1T856 68Q856 94 866 130T892 206T925 275Q940 287 967 296T1017 305Q1040 305 1048 301T1056 281Q1056
266 1045 231T1022 151T1011 59Q1011 42 1014 28T1022 1Q998 -12 978 -17T934 -23Z" />
<glyph unicode="&#xbd;" horiz-adv-x="1143" d="M229 272Q184 272 163 293T142 360Q142 380 145 407T153 462T163 515T172 557Q155 557 137 569T107 604T92 661Q147 668 182 680T243 701T297 710Q347 710 347 654Q347 636 340 605T324 535T307 455T300 377Q300
353 304 333T317 296Q271 272 229 272ZM355 -40Q335 -40 314 -34T280 -17Q327 68 381 176T497 419T625 716Q657 796 718 796Q739 796 760 790T794 773Q724 649 638 467T449 40Q415 -40 355 -40ZM809 64L691 85Q768 119 810 149T870 206T888 258Q888 281 875 298T834
315Q808 315 786 298T755 236Q723 240 705 257T687 301Q687 352 736 383T867 415Q914 415 950 398T1006 352T1027 288Q1027 244 1006 208T937 138T809 64ZM718 -23Q689 -23 671 -4T652 44Q652 80 679 103T750 126Q767 126 792 119T844 103T898 86T942 79L1041 132Q1049
111 1052 95T1056 62Q1056 27 1024 2T942 -23Q901 -23 867 -13T800 10Q759 -23 718 -23Z" />
<glyph unicode="&#xbe;" horiz-adv-x="1120" d="M181 272Q120 272 84 290T48 340Q48 364 64 379T104 394Q127 394 149 378T186 333Q224 333 247 350T271 395Q271 424 246 440T175 457L176 505Q221 505 249 522T277 568Q277 592 262 604T219 617Q189 617 168 596T139
539Q110 542 94 558T77 602Q77 650 122 680T240 710Q313 710 355 681T397 600Q397 562 375 533T311 488Q352 475 373 451T395 395Q395 358 369 330T294 287T181 272ZM390 -40Q370 -40 349 -34T315 -17Q362 68 416 176T532 419T660 716Q692 796 753 796Q774 796
795 790T829 773Q759 649 673 467T484 40Q450 -40 390 -40ZM779 35Q719 35 687 54T654 110Q654 128 666 152T698 205T735 262T766 319T779 373Q779 389 774 400Q790 406 812 410T848 415Q927 415 927 332Q927 289 889 235T773 121H946L937 56Q906 48 862 42T779
35ZM970 -23Q932 -23 912 1T892 68Q892 94 902 130T928 206T961 275Q976 287 1003 296T1053 305Q1076 305 1084 301T1092 281Q1092 266 1081 231T1058 151T1047 59Q1047 42 1050 28T1058 1Q1034 -12 1014 -17T970 -23Z" />
<glyph unicode="&#xbf;" horiz-adv-x="593" d="M230 321Q279 321 304 294T329 226Q286 223 252 209T192 171T154 117T140 50Q140 8 163 -21T235 -51Q262 -51 291 -38T343 5T377 86Q411 86 431 73T461 40T470 -4Q470 -35 455 -68T409 -132T328 -181T209 -200Q115
-200 60 -166T-20 -79T-45 33Q-45 96 -23 149T39 240T127 299T230 321ZM316 600Q355 600 382 574T409 509Q409 479 395 455T355 415T299 399Q259 399 233 425T206 490Q206 518 221 543T260 584T316 600Z" />
<glyph unicode="&#xc0;" horiz-adv-x="738" d="M108 -27Q29 -27 29 65Q29 99 42 146T84 258T157 409T265 608L233 676Q278 704 316 716T398 728Q449 728 468 705Q506 728 540 728Q585 728 606 699T627 605Q627 550 627 492T626 376T629 264T639 162T659 75T694
11Q645 -27 587 -27Q549 -27 523 -9T480 50T457 157T450 319Q450 410 451 483T454 609H442Q366 491 314 393T234 221T207 101Q207 47 226 11Q202 -7 171 -17T108 -27ZM165 171L184 271H530L513 171H165ZM578 795Q556 795 530 805T472 827T402 850T315 860Q311 876
308 892T305 926Q305 1002 366 1002Q396 1002 424 986T482 945T548 898T627 861Q624 830 611 813T578 795Z" />
<glyph unicode="&#xc1;" horiz-adv-x="738" d="M108 -27Q29 -27 29 65Q29 99 42 146T84 258T157 409T265 608L233 676Q278 704 316 716T398 728Q449 728 468 705Q506 728 540 728Q585 728 606 699T627 605Q627 550 627 492T626 376T629 264T639 162T659 75T694
11Q645 -27 587 -27Q549 -27 523 -9T480 50T457 157T450 319Q450 410 451 483T454 609H442Q366 491 314 393T234 221T207 101Q207 47 226 11Q202 -7 171 -17T108 -27ZM165 171L184 271H530L513 171H165ZM387 795Q367 795 355 812T338 861Q382 875 417 898T482 945T541
985T599 1001Q660 1001 660 926Q660 909 658 892T650 860Q602 860 564 850T493 828T435 805T387 795Z" />
<glyph unicode="&#xc2;" horiz-adv-x="738" d="M108 -27Q29 -27 29 65Q29 99 42 146T84 258T157 409T265 608L233 676Q278 704 316 716T398 728Q449 728 468 705Q506 728 540 728Q585 728 606 699T627 605Q627 550 627 492T626 376T629 264T639 162T659 75T694
11Q645 -27 587 -27Q549 -27 523 -9T480 50T457 157T450 319Q450 410 451 483T454 609H442Q366 491 314 393T234 221T207 101Q207 47 226 11Q202 -7 171 -17T108 -27ZM165 171L184 271H530L513 171H165ZM366 799Q335 799 322 809T308 834Q308 858 324 887T364 944T409
991Q432 1005 464 1014T535 1023Q576 1023 605 1008T636 955L637 883Q637 858 646 843T668 818Q649 810 628 805T583 799Q552 799 532 813T512 867Q512 890 515 916T523 966H505Q487 948 476 924T458 873T452 817Q438 810 416 805T366 799Z" />
<glyph unicode="&#xc3;" horiz-adv-x="738" d="M108 -27Q29 -27 29 65Q29 99 42 146T84 258T157 409T265 608L233 676Q278 704 316 716T398 728Q449 728 468 705Q506 728 540 728Q585 728 606 699T627 605Q627 550 627 492T626 376T629 264T639 162T659 75T694
11Q645 -27 587 -27Q549 -27 523 -9T480 50T457 157T450 319Q450 410 451 483T454 609H442Q366 491 314 393T234 221T207 101Q207 47 226 11Q202 -7 171 -17T108 -27ZM165 171L184 271H530L513 171H165ZM347 811Q318 811 303 824T287 868Q287 888 294 912T312 962Q330
954 349 949T387 944Q431 944 469 958T542 985T613 998Q642 998 657 986T673 941Q673 921 667 897T648 847Q630 856 611 860T573 865Q530 865 492 852T419 825T347 811Z" />
<glyph unicode="&#xc4;" horiz-adv-x="738" d="M108 -27Q29 -27 29 65Q29 99 42 146T84 258T157 409T265 608L233 676Q278 704 316 716T398 728Q449 728 468 705Q506 728 540 728Q585 728 606 699T627 605Q627 550 627 492T626 376T629 264T639 162T659 75T694
11Q645 -27 587 -27Q549 -27 523 -9T480 50T457 157T450 319Q450 410 451 483T454 609H442Q366 491 314 393T234 221T207 101Q207 47 226 11Q202 -7 171 -17T108 -27ZM165 171L184 271H530L513 171H165ZM613 802Q575 802 552 821T528 875Q528 905 544 926T585 958T635
970Q670 970 692 951T714 898Q714 855 684 829T613 802ZM325 802Q291 802 269 821T247 875Q247 905 262 926T301 958T349 970Q386 970 410 951T434 898Q434 870 419 848T380 814T325 802Z" />
<glyph unicode="&#xc5;" horiz-adv-x="738" d="M108 -27Q29 -27 29 65Q29 99 42 146T84 258T157 409T265 608L233 676Q278 704 316 716T398 728Q449 728 468 705Q506 728 540 728Q585 728 606 699T627 605Q627 550 627 492T626 376T629 264T639 162T659 75T694
11Q645 -27 587 -27Q549 -27 523 -9T480 50T457 157T450 319Q450 410 451 483T454 609H442Q366 491 314 393T234 221T207 101Q207 47 226 11Q202 -7 171 -17T108 -27ZM165 171L184 271H530L513 171H165ZM472 770Q402 770 362 806T321 903Q321 954 344 993T409 1053T505
1075Q575 1075 615 1040T656 942Q656 891 633 852T569 792T472 770ZM479 838Q510 839 529 868T549 943Q549 1008 499 1007Q488 1007 481 1006T461 1002Q446 984 438 959T429 907Q429 876 443 858T479 838Z" />
<glyph unicode="&#xc6;" horiz-adv-x="926" d="M107 -29Q68 -29 49 -6T29 60Q29 95 43 142T87 255T165 407T280 608L248 676Q293 703 331 714T414 726Q446 726 468 715T503 681L469 609H457Q376 490 320 391T236 218T207 97Q207 70 211 49T226 9Q201 -10 169 -19T107
-29ZM154 171L173 271H499L482 171H154ZM744 -25Q686 -25 632 -12T524 31L537 112H752Q787 117 820 125T885 146Q890 132 892 119T895 90Q895 34 857 5T744 -25ZM497 -26Q443 -26 419 1T394 88Q394 114 397 151T409 247T432 394T469 609L419 665Q465 695 509 710T591
726Q655 726 655 648Q655 636 651 606T639 534T624 444T606 346T590 253T579 174T575 122Q575 84 583 60T611 16Q560 -26 497 -26ZM673 261Q652 261 629 265T572 277L590 373Q614 369 638 367T688 364L771 385Q773 377 773 367T774 346Q774 306 748 284T673 261ZM775
528Q745 528 710 533T640 546T579 566L596 672Q662 672 715 678T820 696T933 721Q937 705 938 691T940 665Q940 620 919 590T861 544T775 528Z" />
<glyph unicode="&#xc7;" horiz-adv-x="695" d="M344 -25Q201 -25 120 53T39 271Q39 370 73 452T167 596T310 692T487 726Q573 726 623 697T673 615Q673 573 643 545T565 517Q520 517 481 540T418 612Q362 590 318 539T248 417T222 265Q222 172 256 120T351 67Q399
67 436 92T496 160T522 255Q576 255 605 235T635 171Q635 117 596 73T491 2T344 -25ZM251 -45Q190 -45 153 -22T116 39Q116 64 133 84T180 116T247 128Q227 118 216 101T204 60Q204 40 216 29T251 17Q284 17 304 36T325 86Q325 164 246 203Q331 203 381 172T431
86Q431 50 407 21T343 -27T251 -45Z" />
<glyph unicode="&#xc8;" horiz-adv-x="610" d="M181 -26Q127 -26 103 1T79 88Q79 113 82 148T93 238T114 375T147 576L103 665Q149 695 193 710T275 726Q339 726 339 648Q339 636 335 606T324 534T308 444T291 346T275 253T263 174T259 122Q259 84 267 60T296
16Q244 -26 181 -26ZM428 -25Q370 -25 316 -12T208 31L221 112H436Q471 117 504 125T569 146Q574 132 576 119T579 90Q579 34 541 5T428 -25ZM357 261Q336 261 313 265T256 277L274 373Q298 369 322 367T372 364L456 385Q457 377 458 367T459 346Q459 306 432 284T357
261ZM459 528Q429 528 394 533T324 546T263 566L280 672Q346 672 399 678T505 696T617 721Q621 705 622 691T624 665Q624 620 603 590T545 544T459 528ZM510 795Q488 795 462 805T404 827T334 850T247 860Q243 876 240 892T237 926Q237 1002 298 1002Q328 1002
356 986T414 945T480 898T559 861Q556 830 543 813T510 795Z" />
<glyph unicode="&#xc9;" horiz-adv-x="610" d="M181 -26Q127 -26 103 1T79 88Q79 113 82 148T93 238T114 375T147 576L103 665Q149 695 193 710T275 726Q339 726 339 648Q339 636 335 606T324 534T308 444T291 346T275 253T263 174T259 122Q259 84 267 60T296
16Q244 -26 181 -26ZM428 -25Q370 -25 316 -12T208 31L221 112H436Q471 117 504 125T569 146Q574 132 576 119T579 90Q579 34 541 5T428 -25ZM357 261Q336 261 313 265T256 277L274 373Q298 369 322 367T372 364L456 385Q457 377 458 367T459 346Q459 306 432 284T357
261ZM459 528Q429 528 394 533T324 546T263 566L280 672Q346 672 399 678T505 696T617 721Q621 705 622 691T624 665Q624 620 603 590T545 544T459 528ZM319 795Q299 795 287 812T270 861Q314 875 349 898T414 945T473 985T531 1001Q592 1001 592 926Q592 909 590
892T582 860Q534 860 496 850T425 828T367 805T319 795Z" />
<glyph unicode="&#xca;" horiz-adv-x="610" d="M181 -26Q127 -26 103 1T79 88Q79 113 82 148T93 238T114 375T147 576L103 665Q149 695 193 710T275 726Q339 726 339 648Q339 636 335 606T324 534T308 444T291 346T275 253T263 174T259 122Q259 84 267 60T296
16Q244 -26 181 -26ZM428 -25Q370 -25 316 -12T208 31L221 112H436Q471 117 504 125T569 146Q574 132 576 119T579 90Q579 34 541 5T428 -25ZM357 261Q336 261 313 265T256 277L274 373Q298 369 322 367T372 364L456 385Q457 377 458 367T459 346Q459 306 432 284T357
261ZM459 528Q429 528 394 533T324 546T263 566L280 672Q346 672 399 678T505 696T617 721Q621 705 622 691T624 665Q624 620 603 590T545 544T459 528ZM298 799Q267 799 254 809T240 834Q240 858 256 887T296 944T341 991Q364 1005 396 1014T467 1023Q508 1023
537 1008T568 955L569 883Q569 858 578 843T600 818Q581 810 560 805T515 799Q484 799 464 813T444 867Q444 890 447 916T455 966H437Q419 948 408 924T390 873T384 817Q370 810 348 805T298 799Z" />
<glyph unicode="&#xcb;" horiz-adv-x="610" d="M181 -26Q127 -26 103 1T79 88Q79 113 82 148T93 238T114 375T147 576L103 665Q149 695 193 710T275 726Q339 726 339 648Q339 636 335 606T324 534T308 444T291 346T275 253T263 174T259 122Q259 84 267 60T296
16Q244 -26 181 -26ZM428 -25Q370 -25 316 -12T208 31L221 112H436Q471 117 504 125T569 146Q574 132 576 119T579 90Q579 34 541 5T428 -25ZM357 261Q336 261 313 265T256 277L274 373Q298 369 322 367T372 364L456 385Q457 377 458 367T459 346Q459 306 432 284T357
261ZM459 528Q429 528 394 533T324 546T263 566L280 672Q346 672 399 678T505 696T617 721Q621 705 622 691T624 665Q624 620 603 590T545 544T459 528ZM546 802Q508 802 485 821T461 875Q461 905 477 926T518 958T568 970Q603 970 625 951T647 898Q647 855 617
829T546 802ZM258 802Q224 802 202 821T180 875Q180 905 195 926T234 958T282 970Q319 970 343 951T367 898Q367 870 352 848T313 814T258 802Z" />
<glyph unicode="&#xcc;" horiz-adv-x="379" d="M181 -25Q127 -25 103 2T79 89Q79 114 81 148T92 237T113 373T147 576L103 665Q149 695 193 710T275 726Q339 726 339 648Q339 636 335 606T324 534T308 444T291 347T275 254T263 175T259 123Q259 84 265 58T287
13Q237 -25 181 -25ZM369 795Q347 795 321 805T263 827T193 850T106 860Q102 876 99 892T96 926Q96 1002 157 1002Q187 1002 215 986T273 945T339 898T418 861Q415 830 402 813T369 795Z" />
<glyph unicode="&#xcd;" horiz-adv-x="379" d="M181 -25Q127 -25 103 2T79 89Q79 114 81 148T92 237T113 373T147 576L103 665Q149 695 193 710T275 726Q339 726 339 648Q339 636 335 606T324 534T308 444T291 347T275 254T263 175T259 123Q259 84 265 58T287
13Q237 -25 181 -25ZM179 795Q159 795 147 812T130 861Q174 875 209 898T274 945T333 985T391 1001Q452 1001 452 926Q452 909 450 892T442 860Q394 860 356 850T285 828T227 805T179 795Z" />
<glyph unicode="&#xce;" horiz-adv-x="379" d="M181 -25Q127 -25 103 2T79 89Q79 114 81 148T92 237T113 373T147 576L103 665Q149 695 193 710T275 726Q339 726 339 648Q339 636 335 606T324 534T308 444T291 347T275 254T263 175T259 123Q259 84 265 58T287
13Q237 -25 181 -25ZM157 799Q126 799 113 809T99 834Q99 858 115 887T155 944T200 991Q223 1005 255 1014T326 1023Q367 1023 396 1008T427 955L428 883Q428 858 437 843T459 818Q440 810 419 805T374 799Q343 799 323 813T303 867Q303 890 306 916T314 966H296Q278
948 267 924T249 873T243 817Q229 810 207 805T157 799Z" />
<glyph unicode="&#xcf;" horiz-adv-x="379" d="M181 -25Q127 -25 103 2T79 89Q79 114 81 148T92 237T113 373T147 576L103 665Q149 695 193 710T275 726Q339 726 339 648Q339 636 335 606T324 534T308 444T291 347T275 254T263 175T259 123Q259 84 265 58T287
13Q237 -25 181 -25ZM405 802Q367 802 344 821T320 875Q320 905 336 926T377 958T427 970Q462 970 484 951T506 898Q506 855 476 829T405 802ZM117 802Q83 802 61 821T39 875Q39 905 54 926T93 958T141 970Q178 970 202 951T226 898Q226 870 211 848T172 814T117
802Z" />
<glyph unicode="&#xd0;" horiz-adv-x="845" d="M326 -25Q207 -25 143 14T79 125Q79 148 82 182T93 267T114 395T146 576L102 665Q150 695 193 710T273 726Q338 726 338 648Q338 635 334 603T322 525T307 427T290 321T274 221T263 139T258 88Q278 80 299 77T344
73Q419 73 476 113T567 223T600 385Q600 495 552 555T415 615Q385 615 360 609T311 589T257 555L236 625Q279 659 316 681T393 715T488 726Q577 726 643 688T746 579T783 414Q783 317 750 237T656 98T511 7T326 -25ZM64 286Q23 286 8 298T-7 342Q-7 357 -2 375T12
413Q34 406 64 403T121 399Q189 399 255 411T388 424Q429 424 443 412T458 368Q458 353 454 335T440 297Q418 305 389 308T332 311Q287 311 242 305T153 293T64 286Z" />
<glyph unicode="&#xd1;" horiz-adv-x="856" d="M658 -26Q619 -26 587 -17T529 15T481 81T436 189T390 349T338 570H281L274 726Q316 726 347 714T404 671T452 580T500 426T556 194L653 193L658 -26ZM181 -26Q127 -26 103 1T79 88Q79 113 81 147T92 236T113 372T147
576L103 665Q149 695 193 710T275 726Q339 726 339 648Q339 636 335 606T324 534T308 444T291 346T275 253T263 174T259 122Q259 83 265 57T287 12Q237 -26 181 -26ZM658 -26Q605 -26 581 1T556 89Q556 113 559 147T570 236T591 373T625 577L586 666Q631 695 673
711T752 727Q816 727 816 649Q816 636 812 606T801 535T786 445T768 347T752 253T741 175T736 122Q736 83 743 58T764 12Q739 -7 713 -16T658 -26ZM377 811Q348 811 333 824T317 868Q317 888 324 912T342 962Q360 954 379 949T417 944Q461 944 499 958T572 985T643
998Q672 998 687 986T703 941Q703 921 697 897T678 847Q660 856 641 860T603 865Q560 865 522 852T449 825T377 811Z" />
<glyph unicode="&#xd2;" horiz-adv-x="762" d="M342 -25Q250 -25 182 13T77 121T39 282Q39 383 70 465T155 605T278 694T423 725Q484 725 511 706T538 643Q538 628 536 617T526 590Q516 593 499 595T468 598Q396 598 341 557T254 445T223 284Q223 176 266 122T382
67Q420 67 458 84T529 134T585 212T616 312Q547 344 521 391T494 491Q494 527 509 555T551 601T611 618Q672 618 706 568T740 431Q740 334 710 251T627 106T501 10T342 -25ZM580 795Q558 795 532 805T474 827T404 850T317 860Q313 876 310 892T307 926Q307 1002
368 1002Q398 1002 426 986T484 945T550 898T629 861Q626 830 613 813T580 795Z" />
<glyph unicode="&#xd3;" horiz-adv-x="762" d="M342 -25Q250 -25 182 13T77 121T39 282Q39 383 70 465T155 605T278 694T423 725Q484 725 511 706T538 643Q538 628 536 617T526 590Q516 593 499 595T468 598Q396 598 341 557T254 445T223 284Q223 176 266 122T382
67Q420 67 458 84T529 134T585 212T616 312Q547 344 521 391T494 491Q494 527 509 555T551 601T611 618Q672 618 706 568T740 431Q740 334 710 251T627 106T501 10T342 -25ZM390 795Q370 795 358 812T341 861Q385 875 420 898T485 945T544 985T602 1001Q663 1001
663 926Q663 909 661 892T653 860Q605 860 567 850T496 828T438 805T390 795Z" />
<glyph unicode="&#xd4;" horiz-adv-x="762" d="M342 -25Q250 -25 182 13T77 121T39 282Q39 383 70 465T155 605T278 694T423 725Q484 725 511 706T538 643Q538 628 536 617T526 590Q516 593 499 595T468 598Q396 598 341 557T254 445T223 284Q223 176 266 122T382
67Q420 67 458 84T529 134T585 212T616 312Q547 344 521 391T494 491Q494 527 509 555T551 601T611 618Q672 618 706 568T740 431Q740 334 710 251T627 106T501 10T342 -25ZM368 799Q337 799 324 809T310 834Q310 858 326 887T366 944T411 991Q434 1005 466 1014T537
1023Q578 1023 607 1008T638 955L639 883Q639 858 648 843T670 818Q651 810 630 805T585 799Q554 799 534 813T514 867Q514 890 517 916T525 966H507Q489 948 478 924T460 873T454 817Q440 810 418 805T368 799Z" />
<glyph unicode="&#xd5;" horiz-adv-x="762" d="M342 -25Q250 -25 182 13T77 121T39 282Q39 383 70 465T155 605T278 694T423 725Q484 725 511 706T538 643Q538 628 536 617T526 590Q516 593 499 595T468 598Q396 598 341 557T254 445T223 284Q223 176 266 122T382
67Q420 67 458 84T529 134T585 212T616 312Q547 344 521 391T494 491Q494 527 509 555T551 601T611 618Q672 618 706 568T740 431Q740 334 710 251T627 106T501 10T342 -25ZM349 811Q320 811 305 824T289 868Q289 888 296 912T314 962Q332 954 351 949T389 944Q433
944 471 958T544 985T615 998Q644 998 659 986T675 941Q675 921 669 897T650 847Q632 856 613 860T575 865Q532 865 494 852T421 825T349 811Z" />
<glyph unicode="&#xd6;" horiz-adv-x="762" d="M342 -25Q250 -25 182 13T77 121T39 282Q39 383 70 465T155 605T278 694T423 725Q484 725 511 706T538 643Q538 628 536 617T526 590Q516 593 499 595T468 598Q396 598 341 557T254 445T223 284Q223 176 266 122T382
67Q420 67 458 84T529 134T585 212T616 312Q547 344 521 391T494 491Q494 527 509 555T551 601T611 618Q672 618 706 568T740 431Q740 334 710 251T627 106T501 10T342 -25ZM616 802Q578 802 555 821T531 875Q531 905 547 926T588 958T638 970Q673 970 695 951T717
898Q717 855 687 829T616 802ZM328 802Q294 802 272 821T250 875Q250 905 265 926T304 958T352 970Q389 970 413 951T437 898Q437 870 422 848T383 814T328 802Z" />
<glyph unicode="&#xd7;" horiz-adv-x="681" d="M193 132Q171 141 149 153T113 181T99 209Q99 222 109 237T143 274L515 607Q539 599 560 586T595 559T609 530Q609 518 600 503T565 465L193 132ZM465 132L178 467Q163 485 156 497T148 521Q148 538 163 554T200
583T242 607L529 272Q544 254 552 242T560 218Q560 203 545 187T508 157T465 132Z" />
<glyph unicode="&#xd8;" horiz-adv-x="762" d="M342 -25Q250 -25 182 13T77 121T39 282Q39 383 70 465T155 605T278 694T423 725Q484 725 511 706T538 643Q538 628 536 617T526 590Q516 593 499 595T468 598Q396 598 341 557T254 445T223 284Q223 176 266 122T382
67Q420 67 458 84T529 134T585 212T616 312Q547 344 521 391T494 491Q494 527 509 555T551 601T611 618Q672 618 706 568T740 431Q740 334 710 251T627 106T501 10T342 -25ZM320 -103Q300 -103 277 -97T241 -80Q288 58 342 260T457 733Q475 813 536 813Q557 813
579 807T615 790Q568 653 514 450T399 -23Q381 -103 320 -103Z" />
<glyph unicode="&#xd9;" horiz-adv-x="818" d="M617 -26Q584 -26 562 -12T530 28T519 89Q519 113 522 136T531 180H523Q492 121 448 75T350 3T235 -24Q194 -24 165 -11T116 25T88 80T79 152Q79 173 81 201T91 274T111 392T144 576L99 665Q153 697 193 711T271
726Q335 726 335 648Q335 637 330 605T316 527T297 431T278 334T264 250T258 196Q258 151 273 128T328 105Q364 105 402 131T476 207T535 321Q527 345 523 377T519 444Q519 487 526 528T549 605T587 668T640 710T707 726Q729 726 750 721T788 706Q774 651 758 577T727
421T704 265T695 133Q695 50 720 12Q696 -8 671 -17T617 -26ZM582 795Q560 795 534 805T476 827T406 850T319 860Q315 876 312 892T309 926Q309 1002 370 1002Q400 1002 428 986T486 945T552 898T631 861Q628 830 615 813T582 795Z" />
<glyph unicode="&#xda;" horiz-adv-x="818" d="M617 -26Q584 -26 562 -12T530 28T519 89Q519 113 522 136T531 180H523Q492 121 448 75T350 3T235 -24Q194 -24 165 -11T116 25T88 80T79 152Q79 173 81 201T91 274T111 392T144 576L99 665Q153 697 193 711T271
726Q335 726 335 648Q335 637 330 605T316 527T297 431T278 334T264 250T258 196Q258 151 273 128T328 105Q364 105 402 131T476 207T535 321Q527 345 523 377T519 444Q519 487 526 528T549 605T587 668T640 710T707 726Q729 726 750 721T788 706Q774 651 758 577T727
421T704 265T695 133Q695 50 720 12Q696 -8 671 -17T617 -26ZM391 795Q371 795 359 812T342 861Q386 875 421 898T486 945T545 985T603 1001Q664 1001 664 926Q664 909 662 892T654 860Q606 860 568 850T497 828T439 805T391 795Z" />
<glyph unicode="&#xdb;" horiz-adv-x="818" d="M617 -26Q584 -26 562 -12T530 28T519 89Q519 113 522 136T531 180H523Q492 121 448 75T350 3T235 -24Q194 -24 165 -11T116 25T88 80T79 152Q79 173 81 201T91 274T111 392T144 576L99 665Q153 697 193 711T271
726Q335 726 335 648Q335 637 330 605T316 527T297 431T278 334T264 250T258 196Q258 151 273 128T328 105Q364 105 402 131T476 207T535 321Q527 345 523 377T519 444Q519 487 526 528T549 605T587 668T640 710T707 726Q729 726 750 721T788 706Q774 651 758 577T727
421T704 265T695 133Q695 50 720 12Q696 -8 671 -17T617 -26ZM370 799Q339 799 326 809T312 834Q312 858 328 887T368 944T413 991Q436 1005 468 1014T539 1023Q580 1023 609 1008T640 955L641 883Q641 858 650 843T672 818Q653 810 632 805T587 799Q556 799 536
813T516 867Q516 890 519 916T527 966H509Q491 948 480 924T462 873T456 817Q442 810 420 805T370 799Z" />
<glyph unicode="&#xdc;" horiz-adv-x="818" d="M617 -26Q584 -26 562 -12T530 28T519 89Q519 113 522 136T531 180H523Q492 121 448 75T350 3T235 -24Q194 -24 165 -11T116 25T88 80T79 152Q79 173 81 201T91 274T111 392T144 576L99 665Q153 697 193 711T271
726Q335 726 335 648Q335 637 330 605T316 527T297 431T278 334T264 250T258 196Q258 151 273 128T328 105Q364 105 402 131T476 207T535 321Q527 345 523 377T519 444Q519 487 526 528T549 605T587 668T640 710T707 726Q729 726 750 721T788 706Q774 651 758 577T727
421T704 265T695 133Q695 50 720 12Q696 -8 671 -17T617 -26ZM618 802Q580 802 557 821T533 875Q533 905 549 926T590 958T640 970Q675 970 697 951T719 898Q719 855 689 829T618 802ZM330 802Q296 802 274 821T252 875Q252 905 267 926T306 958T354 970Q391 970
415 951T439 898Q439 870 424 848T385 814T330 802Z" />
<glyph unicode="&#xdd;" horiz-adv-x="822" d="M109 -242Q22 -242 -20 -211T-63 -127Q-63 -101 -51 -78T-25 -41Q-13 -57 6 -73T54 -99T125 -110Q166 -110 217 -92T321 -36T425 58T516 194T581 370T605 591Q605 619 600 642T582 688Q612 707 643 716T702 726Q741
726 761 702T782 633Q782 562 767 481T722 316T649 151T550 -1T425 -126T278 -211T109 -242ZM372 -30Q306 -30 264 -6T199 60T166 156T154 271T152 393T147 510T127 613T81 688Q130 726 187 726Q241 726 270 697T313 619T328 509T331 383T332 257T347 147T387 69T468
40L372 -30ZM396 795Q376 795 364 812T347 861Q391 875 426 898T491 945T550 985T608 1001Q669 1001 669 926Q669 909 667 892T659 860Q611 860 573 850T502 828T444 805T396 795Z" />
<glyph unicode="&#xde;" horiz-adv-x="708" d="M383 111Q334 111 296 122T222 156L236 247Q256 231 282 224T335 217Q389 217 430 240T494 302T517 392Q517 426 505 455T467 503T398 521Q363 521 329 505T256 458V537Q287 563 318 584T389 617T485 630Q555 630
604 599T678 516T703 406Q703 352 684 300T626 205T526 137T383 111ZM181 -26Q127 -26 103 1T79 88Q79 113 81 147T92 236T113 372T147 576L103 665Q149 695 193 710T275 726Q339 726 339 648Q339 636 335 606T324 534T308 444T291 346T275 253T263 174T259 122Q259
83 265 57T287 12Q237 -26 181 -26Z" />
<glyph unicode="&#xdf;" horiz-adv-x="718" d="M157 -210Q111 -210 87 -185T62 -111Q62 -90 72 -20T101 168T147 442Q173 584 251 654T459 725Q529 725 580 705T659 648T687 559Q687 500 649 450T541 367Q588 357 623 330T678 264T699 183Q699 86 630 31T440 -25Q367
-25 326 -2T285 64Q285 89 298 110T336 146Q347 109 372 88T429 66Q463 66 488 82T527 126T541 193Q541 243 514 286T440 352Q471 369 494 396T530 458T544 526Q544 573 521 601T457 629Q420 629 393 610T347 549T317 442Q294 314 278 223T253 71T239 -29T234 -89Q234
-146 262 -169Q239 -189 212 -199T157 -210ZM121 309Q67 309 46 321T25 365Q25 403 45 436Q65 430 90 426T142 422Q169 422 187 424T230 432L247 325Q231 321 209 317T164 311T121 309Z" />
<glyph unicode="&#xe0;" horiz-adv-x="747" d="M239 -25Q184 -25 142 4T77 86T54 210Q54 295 83 366T165 490T289 571T447 600Q491 600 532 592Q538 580 541 562T544 523Q474 523 415 501T313 439T247 347T223 235Q223 179 246 148T312 117Q394 117 444 217T517
523Q538 549 564 562T622 575Q653 575 670 558T688 509Q688 481 678 434T654 330T630 211T619 92Q619 38 645 16Q620 -5 594 -15T540 -25Q496 -25 472 1T448 75Q448 85 449 96T453 121L443 126Q411 54 358 15T239 -25ZM537 660Q515 660 489 670T431 692T361 715T274
725Q270 741 267 757T264 791Q264 867 325 867Q355 867 383 851T441 810T507 763T586 726Q583 695 570 678T537 660Z" />
<glyph unicode="&#xe1;" horiz-adv-x="747" d="M239 -25Q184 -25 142 4T77 86T54 210Q54 295 83 366T165 490T289 571T447 600Q491 600 532 592Q538 580 541 562T544 523Q474 523 415 501T313 439T247 347T223 235Q223 179 246 148T312 117Q394 117 444 217T517
523Q538 549 564 562T622 575Q653 575 670 558T688 509Q688 481 678 434T654 330T630 211T619 92Q619 38 645 16Q620 -5 594 -15T540 -25Q496 -25 472 1T448 75Q448 85 449 96T453 121L443 126Q411 54 358 15T239 -25ZM346 660Q326 660 314 677T297 726Q341 740
376 763T441 810T500 850T558 866Q619 866 619 791Q619 774 617 757T609 725Q561 725 523 715T452 693T394 670T346 660Z" />
<glyph unicode="&#xe2;" horiz-adv-x="747" d="M239 -25Q184 -25 142 4T77 86T54 210Q54 295 83 366T165 490T289 571T447 600Q491 600 532 592Q538 580 541 562T544 523Q474 523 415 501T313 439T247 347T223 235Q223 179 246 148T312 117Q394 117 444 217T517
523Q538 549 564 562T622 575Q653 575 670 558T688 509Q688 481 678 434T654 330T630 211T619 92Q619 38 645 16Q620 -5 594 -15T540 -25Q496 -25 472 1T448 75Q448 85 449 96T453 121L443 126Q411 54 358 15T239 -25ZM325 664Q294 664 281 674T267 699Q267 723
283 752T323 809T368 856Q391 870 423 879T494 888Q535 888 564 873T595 820L596 748Q596 723 605 708T627 683Q608 675 587 670T542 664Q511 664 491 678T471 732Q471 755 474 781T482 831H464Q446 813 435 789T417 738T411 682Q397 675 375 670T325 664Z" />
<glyph unicode="&#xe3;" horiz-adv-x="747" d="M239 -25Q184 -25 142 4T77 86T54 210Q54 295 83 366T165 490T289 571T447 600Q491 600 532 592Q538 580 541 562T544 523Q474 523 415 501T313 439T247 347T223 235Q223 179 246 148T312 117Q394 117 444 217T517
523Q538 549 564 562T622 575Q653 575 670 558T688 509Q688 481 678 434T654 330T630 211T619 92Q619 38 645 16Q620 -5 594 -15T540 -25Q496 -25 472 1T448 75Q448 85 449 96T453 121L443 126Q411 54 358 15T239 -25ZM306 676Q277 676 262 689T246 733Q246 753
253 777T271 827Q289 819 308 814T346 809Q390 809 428 823T501 850T572 863Q601 863 616 851T632 806Q632 786 626 762T607 712Q589 721 570 725T532 730Q489 730 451 717T378 690T306 676Z" />
<glyph unicode="&#xe4;" horiz-adv-x="747" d="M239 -25Q184 -25 142 4T77 86T54 210Q54 295 83 366T165 490T289 571T447 600Q491 600 532 592Q538 580 541 562T544 523Q474 523 415 501T313 439T247 347T223 235Q223 179 246 148T312 117Q394 117 444 217T517
523Q538 549 564 562T622 575Q653 575 670 558T688 509Q688 481 678 434T654 330T630 211T619 92Q619 38 645 16Q620 -5 594 -15T540 -25Q496 -25 472 1T448 75Q448 85 449 96T453 121L443 126Q411 54 358 15T239 -25ZM573 667Q535 667 512 686T488 740Q488 770
504 791T545 823T595 835Q630 835 652 816T674 763Q674 720 644 694T573 667ZM285 667Q251 667 229 686T207 740Q207 770 222 791T261 823T309 835Q346 835 370 816T394 763Q394 735 379 713T340 679T285 667Z" />
<glyph unicode="&#xe5;" horiz-adv-x="747" d="M239 -25Q184 -25 142 4T77 86T54 210Q54 295 83 366T165 490T289 571T447 600Q491 600 532 592Q538 580 541 562T544 523Q474 523 415 501T313 439T247 347T223 235Q223 179 246 148T312 117Q394 117 444 217T517
523Q538 549 564 562T622 575Q653 575 670 558T688 509Q688 481 678 434T654 330T630 211T619 92Q619 38 645 16Q620 -5 594 -15T540 -25Q496 -25 472 1T448 75Q448 85 449 96T453 121L443 126Q411 54 358 15T239 -25ZM432 635Q362 635 322 671T281 768Q281 819
304 858T369 918T465 940Q535 940 575 905T616 807Q616 756 593 717T529 657T432 635ZM439 703Q470 704 489 733T509 808Q509 873 459 872Q448 872 441 871T421 867Q406 849 398 824T389 772Q389 741 403 723T439 703Z" />
<glyph unicode="&#xe6;" horiz-adv-x="1042" d="M239 -25Q184 -25 142 4T77 86T54 210Q54 289 83 356T165 472T289 548T447 575Q494 575 532 567Q538 553 541 536T544 498Q474 498 416 479T314 423T247 339T223 235Q223 179 246 148T312 117Q342 117 371 133T427
182T470 257L456 126H447Q415 54 360 15T239 -25ZM691 -25Q574 -25 508 40T442 223Q442 304 470 373T550 493T671 572T823 600Q910 600 958 562T1006 456Q1006 385 956 334T813 257T588 232L600 299Q724 302 791 340T858 444Q858 471 841 487T796 504Q759 504 726
482T666 419T626 328T611 219Q611 147 637 106T709 64Q765 64 801 103T840 205Q892 205 919 187T947 130Q947 88 913 53T821 -3T691 -25Z" />
<glyph unicode="&#xe7;" horiz-adv-x="631" d="M319 -25Q197 -25 128 42T58 228Q58 309 86 376T165 494T284 572T433 600Q510 600 555 573T601 499Q601 461 574 436T505 411Q466 411 432 432T378 495Q336 478 302 438T247 343T227 224Q227 149 253 107T328 64Q366
64 396 84T445 140T466 217Q517 217 545 198T573 141Q573 95 539 57T447 -3T319 -25ZM242 -45Q181 -45 144 -22T107 39Q107 64 124 84T171 116T238 128Q218 118 207 101T195 60Q195 40 207 29T242 17Q275 17 295 36T316 86Q316 164 237 203Q322 203 372 172T422
86Q422 50 398 21T334 -27T242 -45Z" />
<glyph unicode="&#xe8;" horiz-adv-x="657" d="M306 -25Q189 -25 123 40T57 223Q57 304 85 373T165 493T286 572T438 600Q525 600 573 562T621 456Q621 385 571 334T428 257T203 232L216 299Q339 302 406 340T473 444Q473 471 456 487T411 504Q374 504 341 482T281
419T241 328T226 219Q226 147 252 106T324 64Q380 64 416 103T455 205Q507 205 534 187T562 130Q562 88 528 53T436 -3T306 -25ZM529 660Q507 660 481 670T423 692T353 715T266 725Q262 741 259 757T256 791Q256 867 317 867Q347 867 375 851T433 810T499 763T578
726Q575 695 562 678T529 660Z" />
<glyph unicode="&#xe9;" horiz-adv-x="657" d="M306 -25Q189 -25 123 40T57 223Q57 304 85 373T165 493T286 572T438 600Q525 600 573 562T621 456Q621 385 571 334T428 257T203 232L216 299Q339 302 406 340T473 444Q473 471 456 487T411 504Q374 504 341 482T281
419T241 328T226 219Q226 147 252 106T324 64Q380 64 416 103T455 205Q507 205 534 187T562 130Q562 88 528 53T436 -3T306 -25ZM338 660Q318 660 306 677T289 726Q333 740 368 763T433 810T492 850T550 866Q611 866 611 791Q611 774 609 757T601 725Q553 725 515
715T444 693T386 670T338 660Z" />
<glyph unicode="&#xea;" horiz-adv-x="657" d="M306 -25Q189 -25 123 40T57 223Q57 304 85 373T165 493T286 572T438 600Q525 600 573 562T621 456Q621 385 571 334T428 257T203 232L216 299Q339 302 406 340T473 444Q473 471 456 487T411 504Q374 504 341 482T281
419T241 328T226 219Q226 147 252 106T324 64Q380 64 416 103T455 205Q507 205 534 187T562 130Q562 88 528 53T436 -3T306 -25ZM317 664Q286 664 273 674T259 699Q259 723 275 752T315 809T360 856Q383 870 415 879T486 888Q527 888 556 873T587 820L588 748Q588
723 597 708T619 683Q600 675 579 670T534 664Q503 664 483 678T463 732Q463 755 466 781T474 831H456Q438 813 427 789T409 738T403 682Q389 675 367 670T317 664Z" />
<glyph unicode="&#xeb;" horiz-adv-x="657" d="M306 -25Q189 -25 123 40T57 223Q57 304 85 373T165 493T286 572T438 600Q525 600 573 562T621 456Q621 385 571 334T428 257T203 232L216 299Q339 302 406 340T473 444Q473 471 456 487T411 504Q374 504 341 482T281
419T241 328T226 219Q226 147 252 106T324 64Q380 64 416 103T455 205Q507 205 534 187T562 130Q562 88 528 53T436 -3T306 -25ZM565 667Q527 667 504 686T480 740Q480 770 496 791T537 823T587 835Q622 835 644 816T666 763Q666 720 636 694T565 667ZM277 667Q243
667 221 686T199 740Q199 770 214 791T253 823T301 835Q338 835 362 816T386 763Q386 735 371 713T332 679T277 667Z" />
<glyph unicode="&#xec;" horiz-adv-x="388" d="M178 -25Q126 -25 103 1T80 78Q80 100 85 137T101 226T124 338T152 467L101 538Q138 565 182 582T265 600Q302 600 317 585T333 533Q333 523 327 497T312 432T292 349T273 258T258 169T252 92Q252 66 258 47T278
15Q231 -25 178 -25ZM357 660Q335 660 309 670T251 692T181 715T94 725Q90 741 87 757T84 791Q84 867 145 867Q175 867 203 851T261 810T327 763T406 726Q403 695 390 678T357 660Z" />
<glyph unicode="&#xed;" horiz-adv-x="388" d="M178 -25Q126 -25 103 1T80 78Q80 100 85 137T101 226T124 338T152 467L101 538Q138 565 182 582T265 600Q302 600 317 585T333 533Q333 523 327 497T312 432T292 349T273 258T258 169T252 92Q252 66 258 47T278
15Q231 -25 178 -25ZM166 660Q146 660 134 677T117 726Q161 740 196 763T261 810T320 850T378 866Q439 866 439 791Q439 774 437 757T429 725Q381 725 343 715T272 693T214 670T166 660Z" />
<glyph unicode="&#xee;" horiz-adv-x="388" d="M178 -25Q126 -25 103 1T80 78Q80 100 85 137T101 226T124 338T152 467L101 538Q138 565 182 582T265 600Q302 600 317 585T333 533Q333 523 327 497T312 432T292 349T273 258T258 169T252 92Q252 66 258 47T278
15Q231 -25 178 -25ZM401 664Q370 664 357 674T343 699Q343 723 359 752T399 809T444 856Q467 870 499 879T570 888Q611 888 640 873T671 820L672 748Q672 723 681 708T703 683Q684 675 663 670T618 664Q587 664 567 678T547 732Q547 755 550 781T558 831H540Q522
813 511 789T493 738T487 682Q473 675 451 670T401 664Z" />
<glyph unicode="&#xef;" horiz-adv-x="388" d="M178 -25Q126 -25 103 1T80 78Q80 100 85 137T101 226T124 338T152 467L101 538Q138 565 182 582T265 600Q302 600 317 585T333 533Q333 523 327 497T312 432T292 349T273 258T258 169T252 92Q252 66 258 47T278
15Q231 -25 178 -25ZM649 667Q611 667 588 686T564 740Q564 770 580 791T621 823T671 835Q706 835 728 816T750 763Q750 720 720 694T649 667ZM361 667Q327 667 305 686T283 740Q283 770 298 791T337 823T385 835Q422 835 446 816T470 763Q470 735 455 713T416
679T361 667Z" />
<glyph unicode="&#xf0;" horiz-adv-x="713" d="M328 -25Q246 -25 186 8T93 101T60 242Q60 321 86 386T162 500T277 574T424 600Q468 600 497 592Q508 567 507 523Q425 523 363 487T265 386T229 234Q229 152 261 108T352 64Q403 64 442 93T503 175T526 296Q526
385 499 462T425 599T316 691T181 724Q181 771 210 799T289 827Q348 827 403 801T505 729T589 621T645 488T666 342Q666 233 623 151T504 22T328 -25ZM607 671Q588 664 566 658T522 649T482 643L462 749Q488 753 505 757T548 770Q571 779 593 791T635 817Q649 805
660 790T678 757Q688 728 674 709T607 671Z" />
<glyph unicode="&#xf1;" horiz-adv-x="758" d="M172 -25Q120 -25 97 1T74 78Q74 100 80 145T97 247T121 365T146 478L97 546Q132 569 173 584T255 599Q292 599 309 582T326 531Q326 505 319 476T300 422L310 417Q365 513 433 556T578 600Q641 600 671 570T702
474Q702 432 693 386T671 290T648 191T638 92Q638 40 656 16Q612 -25 564 -25Q513 -25 490 1T467 78Q467 120 476 166T497 257T518 343T528 414Q528 442 518 456T483 471Q453 471 421 452T357 397T301 315T261 211T246 92Q246 39 264 16Q220 -25 172 -25ZM341 676Q312
676 297 689T281 733Q281 753 288 777T306 827Q324 819 343 814T381 809Q425 809 463 823T536 850T607 863Q636 863 651 851T667 806Q667 786 661 762T642 712Q624 721 605 725T567 730Q524 730 486 717T413 690T341 676Z" />
<glyph unicode="&#xf2;" horiz-adv-x="721" d="M320 -25Q240 -25 182 7T91 99T59 238Q59 318 86 384T162 498T279 573T427 600Q446 600 463 599T501 592Q506 578 508 561T511 523Q423 523 360 485T262 381T228 234Q228 148 259 106T344 64Q391 64 427 89T488 162T519
274Q480 297 461 329T442 403Q442 438 456 466T496 510T552 526Q605 526 637 482T670 364Q670 282 643 212T568 88T457 5T320 -25ZM518 660Q496 660 470 670T412 692T342 715T255 725Q251 741 248 757T245 791Q245 867 306 867Q336 867 364 851T422 810T488 763T567
726Q564 695 551 678T518 660Z" />
<glyph unicode="&#xf3;" horiz-adv-x="721" d="M320 -25Q240 -25 182 7T91 99T59 238Q59 318 86 384T162 498T279 573T427 600Q446 600 463 599T501 592Q506 578 508 561T511 523Q423 523 360 485T262 381T228 234Q228 148 259 106T344 64Q391 64 427 89T488 162T519
274Q480 297 461 329T442 403Q442 438 456 466T496 510T552 526Q605 526 637 482T670 364Q670 282 643 212T568 88T457 5T320 -25ZM328 660Q308 660 296 677T279 726Q323 740 358 763T423 810T482 850T540 866Q601 866 601 791Q601 774 599 757T591 725Q543 725
505 715T434 693T376 670T328 660Z" />
<glyph unicode="&#xf4;" horiz-adv-x="721" d="M320 -25Q240 -25 182 7T91 99T59 238Q59 318 86 384T162 498T279 573T427 600Q446 600 463 599T501 592Q506 578 508 561T511 523Q423 523 360 485T262 381T228 234Q228 148 259 106T344 64Q391 64 427 89T488 162T519
274Q480 297 461 329T442 403Q442 438 456 466T496 510T552 526Q605 526 637 482T670 364Q670 282 643 212T568 88T457 5T320 -25ZM306 664Q275 664 262 674T248 699Q248 723 264 752T304 809T349 856Q372 870 404 879T475 888Q516 888 545 873T576 820L577 748Q577
723 586 708T608 683Q589 675 568 670T523 664Q492 664 472 678T452 732Q452 755 455 781T463 831H445Q427 813 416 789T398 738T392 682Q378 675 356 670T306 664Z" />
<glyph unicode="&#xf5;" horiz-adv-x="721" d="M320 -25Q240 -25 182 7T91 99T59 238Q59 318 86 384T162 498T279 573T427 600Q446 600 463 599T501 592Q506 578 508 561T511 523Q423 523 360 485T262 381T228 234Q228 148 259 106T344 64Q391 64 427 89T488 162T519
274Q480 297 461 329T442 403Q442 438 456 466T496 510T552 526Q605 526 637 482T670 364Q670 282 643 212T568 88T457 5T320 -25ZM287 676Q258 676 243 689T227 733Q227 753 234 777T252 827Q270 819 289 814T327 809Q371 809 409 823T482 850T553 863Q582 863
597 851T613 806Q613 786 607 762T588 712Q570 721 551 725T513 730Q470 730 432 717T359 690T287 676Z" />
<glyph unicode="&#xf6;" horiz-adv-x="721" d="M320 -25Q240 -25 182 7T91 99T59 238Q59 318 86 384T162 498T279 573T427 600Q446 600 463 599T501 592Q506 578 508 561T511 523Q423 523 360 485T262 381T228 234Q228 148 259 106T344 64Q391 64 427 89T488 162T519
274Q480 297 461 329T442 403Q442 438 456 466T496 510T552 526Q605 526 637 482T670 364Q670 282 643 212T568 88T457 5T320 -25ZM554 667Q516 667 493 686T469 740Q469 770 485 791T526 823T576 835Q611 835 633 816T655 763Q655 720 625 694T554 667ZM266 667Q232
667 210 686T188 740Q188 770 203 791T242 823T290 835Q327 835 351 816T375 763Q375 735 360 713T321 679T266 667Z" />
<glyph unicode="&#xf7;" horiz-adv-x="721" d="M201 300Q156 300 139 311T121 350Q121 368 127 392T145 445H546Q592 445 609 435T626 396Q626 358 602 300H201ZM404 535Q364 535 338 561T311 626Q311 656 325 680T364 720T420 736Q460 736 486 710T513 645Q513
617 499 592T459 551T404 535ZM321 9Q281 9 255 35T228 100Q228 130 242 154T281 194T337 210Q377 210 403 184T430 119Q430 91 416 66T376 25T321 9Z" />
<glyph unicode="&#xf8;" horiz-adv-x="721" d="M320 -25Q240 -25 182 7T91 99T59 238Q59 318 86 384T162 498T279 573T427 600Q446 600 463 599T501 592Q506 578 508 561T511 523Q423 523 360 485T262 381T228 234Q228 148 259 106T344 64Q391 64 427 89T488 162T519
274Q480 297 461 329T442 403Q442 438 456 466T496 510T552 526Q605 526 637 482T670 364Q670 282 643 212T568 88T457 5T320 -25ZM285 -78Q269 -78 251 -73T222 -60Q259 51 302 213T394 591Q409 655 458 655Q474 655 492 650T521 636Q483 527 440 365T348 -14Q334
-78 285 -78Z" />
<glyph unicode="&#xf9;" horiz-adv-x="755" d="M233 -25Q152 -25 113 15T74 137Q74 178 81 223T97 313T113 399T120 474Q120 500 116 522T103 560Q136 578 172 589T229 600Q266 600 282 584T299 531Q299 510 293 473T278 393T260 305T244 225T238 169Q238 123
257 101T315 78Q364 78 409 114T480 211L487 55L440 78Q416 47 383 24T312 -12T233 -25ZM547 -25Q497 -25 473 2T449 88Q449 112 457 160T480 284T520 463L470 538Q503 560 532 573T586 593T634 600Q671 600 686 585T701 533Q701 523 696 497T681 432T662 349T643
258T627 169T621 92Q621 37 647 15Q600 -25 547 -25ZM541 660Q519 660 493 670T435 692T365 715T278 725Q274 741 271 757T268 791Q268 867 329 867Q359 867 387 851T445 810T511 763T590 726Q587 695 574 678T541 660Z" />
<glyph unicode="&#xfa;" horiz-adv-x="755" d="M233 -25Q152 -25 113 15T74 137Q74 178 81 223T97 313T113 399T120 474Q120 500 116 522T103 560Q136 578 172 589T229 600Q266 600 282 584T299 531Q299 510 293 473T278 393T260 305T244 225T238 169Q238 123
257 101T315 78Q364 78 409 114T480 211L487 55L440 78Q416 47 383 24T312 -12T233 -25ZM547 -25Q497 -25 473 2T449 88Q449 112 457 160T480 284T520 463L470 538Q503 560 532 573T586 593T634 600Q671 600 686 585T701 533Q701 523 696 497T681 432T662 349T643
258T627 169T621 92Q621 37 647 15Q600 -25 547 -25ZM350 660Q330 660 318 677T301 726Q345 740 380 763T445 810T504 850T562 866Q623 866 623 791Q623 774 621 757T613 725Q565 725 527 715T456 693T398 670T350 660Z" />
<glyph unicode="&#xfb;" horiz-adv-x="755" d="M233 -25Q152 -25 113 15T74 137Q74 178 81 223T97 313T113 399T120 474Q120 500 116 522T103 560Q136 578 172 589T229 600Q266 600 282 584T299 531Q299 510 293 473T278 393T260 305T244 225T238 169Q238 123
257 101T315 78Q364 78 409 114T480 211L487 55L440 78Q416 47 383 24T312 -12T233 -25ZM547 -25Q497 -25 473 2T449 88Q449 112 457 160T480 284T520 463L470 538Q503 560 532 573T586 593T634 600Q671 600 686 585T701 533Q701 523 696 497T681 432T662 349T643
258T627 169T621 92Q621 37 647 15Q600 -25 547 -25ZM329 664Q298 664 285 674T271 699Q271 723 287 752T327 809T372 856Q395 870 427 879T498 888Q539 888 568 873T599 820L600 748Q600 723 609 708T631 683Q612 675 591 670T546 664Q515 664 495 678T475 732Q475
755 478 781T486 831H468Q450 813 439 789T421 738T415 682Q401 675 379 670T329 664Z" />
<glyph unicode="&#xfc;" horiz-adv-x="755" d="M233 -25Q152 -25 113 15T74 137Q74 178 81 223T97 313T113 399T120 474Q120 500 116 522T103 560Q136 578 172 589T229 600Q266 600 282 584T299 531Q299 510 293 473T278 393T260 305T244 225T238 169Q238 123
257 101T315 78Q364 78 409 114T480 211L487 55L440 78Q416 47 383 24T312 -12T233 -25ZM547 -25Q497 -25 473 2T449 88Q449 112 457 160T480 284T520 463L470 538Q503 560 532 573T586 593T634 600Q671 600 686 585T701 533Q701 523 696 497T681 432T662 349T643
258T627 169T621 92Q621 37 647 15Q600 -25 547 -25ZM577 667Q539 667 516 686T492 740Q492 770 508 791T549 823T599 835Q634 835 656 816T678 763Q678 720 648 694T577 667ZM289 667Q255 667 233 686T211 740Q211 770 226 791T265 823T313 835Q350 835 374 816T398
763Q398 735 383 713T344 679T289 667Z" />
<glyph unicode="&#xfd;" horiz-adv-x="695" d="M93 -200Q16 -200 -23 -173T-62 -97Q-62 -72 -50 -50T-24 -16Q-14 -31 2 -44T43 -67T103 -76Q138 -76 180 -61T267 -14T353 66T427 178T479 325T499 507Q499 520 498 536T495 564Q517 581 542 590T590 600Q628 600
649 582T670 523Q670 460 653 383T601 224T516 67T402 -69T261 -164T93 -200ZM301 -25Q236 -25 199 0T143 69T120 167T115 278T112 391T97 492T55 564Q100 600 155 600Q202 600 228 577T266 513T280 424T282 321T282 218T293 128T325 65T391 41L301 -25ZM316 660Q296
660 284 677T267 726Q311 740 346 763T411 810T470 850T528 866Q589 866 589 791Q589 774 587 757T579 725Q531 725 493 715T422 693T364 670T316 660Z" />
<glyph unicode="&#xfe;" horiz-adv-x="758" d="M312 0Q267 0 227 8Q221 21 218 39T215 77Q309 77 381 111T495 204T536 340Q536 396 513 427T446 458Q404 458 364 415T292 293T238 106L246 477L317 443Q348 517 401 558T520 600Q576 600 617 571T682 489T705 365Q705
286 676 219T594 103T470 27T312 0ZM147 -200Q98 -200 76 -171T54 -81Q54 -63 59 -19T74 88T95 222T119 370T144 516T167 645L116 714Q151 740 193 757T275 775Q314 775 330 760T347 710Q347 663 338 607T315 489T286 359T257 220T234 76T225 -70Q225 -107 232
-126T252 -159Q229 -180 201 -190T147 -200Z" />
<glyph unicode="&#xff;" horiz-adv-x="695" d="M93 -200Q16 -200 -23 -173T-62 -97Q-62 -72 -50 -50T-24 -16Q-14 -31 2 -44T43 -67T103 -76Q138 -76 180 -61T267 -14T353 66T427 178T479 325T499 507Q499 520 498 536T495 564Q517 581 542 590T590 600Q628 600
649 582T670 523Q670 460 653 383T601 224T516 67T402 -69T261 -164T93 -200ZM301 -25Q236 -25 199 0T143 69T120 167T115 278T112 391T97 492T55 564Q100 600 155 600Q202 600 228 577T266 513T280 424T282 321T282 218T293 128T325 65T391 41L301 -25ZM542 667Q504
667 481 686T457 740Q457 770 473 791T514 823T564 835Q599 835 621 816T643 763Q643 720 613 694T542 667ZM254 667Q220 667 198 686T176 740Q176 770 191 791T230 823T278 835Q315 835 339 816T363 763Q363 735 348 713T309 679T254 667Z" />
<glyph unicode="&#x2013;" horiz-adv-x="672" d="M128 199Q73 199 53 213T33 263Q33 287 39 314T57 373Q85 363 118 358T188 352Q230 352 274 357T363 369T454 381T544 387Q600 387 620 374T640 322Q640 300 634 273T615 213Q588 223 555 228T485 234Q444 234
400 229T309 217T218 205T128 199Z" />
<glyph unicode="&#x2014;" horiz-adv-x="862" d="M135 199Q77 199 56 214T34 270Q34 293 40 319T57 373Q89 364 134 358T228 352Q285 352 346 357T472 369T601 381T729 387Q787 387 808 372T829 317Q829 293 823 267T806 213Q777 223 732 228T636 234Q579 234
518 229T392 217T263 205T135 199Z" />
<glyph unicode="&#x2018;" horiz-adv-x="318" d="M300 776L314 736Q284 721 263 697T230 647T218 598L281 517Q279 488 264 464T222 425T166 410Q120 410 95 441T70 513Q70 575 98 628T178 720T300 776Z" />
<glyph unicode="&#x2019;" horiz-adv-x="348" d="M104 410L90 450Q120 465 141 489T174 539T186 588L123 669Q125 698 140 722T182 761T238 776Q284 776 309 745T334 673Q334 611 306 558T226 466T104 410Z" />
<glyph unicode="&#x201a;" horiz-adv-x="333" d="M40 -189L26 -149Q56 -134 77 -110T110 -60T122 -11L59 70Q61 99 76 123T118 162T174 177Q220 177 245 146T270 74Q270 12 242 -41T162 -133T40 -189Z" />
<glyph unicode="&#x201c;" horiz-adv-x="587" d="M300 776L314 736Q284 721 263 697T230 647T218 598L281 517Q279 488 264 464T222 425T166 410Q120 410 95 441T70 513Q70 575 98 628T178 720T300 776ZM569 776L583 736Q553 721 532 697T499 647T487 598L550
517Q548 488 533 464T491 425T435 410Q389 410 364 441T339 513Q339 575 367 628T447 720T569 776Z" />
<glyph unicode="&#x201d;" horiz-adv-x="617" d="M372 410L358 450Q388 465 409 489T442 539T454 588L391 669Q393 698 408 722T450 761T506 776Q552 776 577 745T602 673Q602 611 574 558T494 466T372 410ZM103 410L89 450Q119 465 140 489T173 539T185 588L122
669Q124 698 139 722T181 761T237 776Q283 776 308 745T333 673Q333 611 305 558T225 466T103 410Z" />
<glyph unicode="&#x201e;" horiz-adv-x="602" d="M40 -189L26 -149Q56 -134 77 -110T110 -60T122 -11L59 70Q61 99 76 123T118 162T174 177Q220 177 245 146T270 74Q270 12 242 -41T162 -133T40 -189ZM309 -189L295 -149Q325 -134 346 -110T379 -60T391 -11L328
70Q330 99 345 123T387 162T443 177Q489 177 514 146T539 74Q539 12 511 -41T431 -133T309 -189Z" />
<glyph unicode="&#x2022;" horiz-adv-x="388" d="M160 194Q112 194 81 226T49 303Q49 339 66 368T113 416T180 435Q228 435 259 404T291 326Q291 292 274 262T226 213T160 194Z" />
<glyph unicode="&#x2039;" horiz-adv-x="381" d="M204 25Q178 57 150 95T96 170T56 238T40 288Q40 312 56 338T101 396T175 465T275 549Q298 549 315 540T343 516T353 481Q353 457 336 435T291 392T228 349T158 300Q202 256 232 222T278 160T295 101Q295 81 284
64T253 36T204 25Z" />
<glyph unicode="&#x203a;" horiz-adv-x="381" d="M176 549Q202 517 230 479T284 404T324 336T340 286Q340 262 324 236T279 178T205 109T105 25Q82 25 65 34T37 58T27 93Q27 117 44 139T89 182T152 225T222 274Q178 318 148 352T102 414T85 473Q85 493 96 510T127
538T176 549Z" />
</font>
</defs>
</svg>
