<?xml version="1.0" standalone="no"?>
<!DOCTYPE svg PUBLIC "-//W3C//DTD SVG 1.1//EN" "http://www.w3.org/Graphics/SVG/1.1/DTD/svg11.dtd">
<svg xmlns="http://www.w3.org/2000/svg">
<defs >
<font id="Lemonada" horiz-adv-x="685" ><font-face
    font-family="Lemonada Medium"
    units-per-em="1000"
    panose-1="0 0 0 0 0 0 0 0 0 0"
    ascent="1345"
    descent="-653"
    alphabetic="0" />
<glyph unicode=" " horiz-adv-x="317" />
<glyph unicode="!" horiz-adv-x="381" d="M190 258Q161 258 151 274T141 317Q141 334 146 365T157 435T171 513T183 589T188 650Q188 670 184 693T167 730Q190 752 221 763T289 775Q336 775 355 749T375 684Q375 660 367 621T346 534T316 440T285 352T259 285Q244
272 224 265T190 258ZM147 -25Q112 -25 89 -2T65 55Q65 81 77 103T112 138T161 152Q197 152 220 129T243 72Q243 47 230 25T196 -11T147 -25Z" />
<glyph unicode="&quot;" horiz-adv-x="452" d="M347 446Q320 446 311 460T301 496Q301 528 314 564T340 638T353 716Q353 739 346 759Q365 770 386 775T425 780Q452 780 462 766T472 730Q472 698 459 662T433 588T420 510Q420 487 427 467Q408 457 387 452T347
446ZM130 446Q103 446 93 460T83 496Q83 528 96 564T122 638T135 716Q135 739 128 759Q148 770 169 775T208 780Q235 780 244 766T254 730Q254 698 241 662T215 588T202 510Q202 487 209 467Q190 457 169 452T130 446Z" />
<glyph unicode="#" horiz-adv-x="851" d="M169 158Q151 158 133 163T102 177Q150 321 204 525T320 1005Q335 1074 391 1074Q409 1074 427 1069T458 1055Q410 912 356 707T240 227Q225 158 169 158ZM466 -98Q448 -98 430 -93T399 -79Q447 65 501 269T617 749Q632
818 688 818Q706 818 724 813T755 799Q707 656 653 451T537 -29Q522 -98 466 -98ZM160 162Q87 162 62 174T36 218Q36 249 57 278Q77 274 102 272T157 267T217 265Q287 265 361 272T513 285T670 292Q743 292 768 281T793 237Q793 203 774 176Q743 183 702 186T615
189Q545 189 470 183T318 169T160 162ZM208 462Q135 462 110 474T84 518Q84 549 105 578Q125 574 150 572T205 567T265 565Q335 565 409 572T561 585T718 592Q791 592 816 581T841 537Q841 503 822 476Q791 483 750 486T663 489Q593 489 518 483T366 469T208 462Z"
/>
<glyph unicode="$" horiz-adv-x="684" d="M307 -24Q229 -24 174 -9T91 34T62 101Q62 125 73 147T105 184Q136 127 186 95T300 62Q366 62 411 86T456 161Q456 191 431 211T365 247T280 280T195 321T130 383T104 477Q104 529 129 570T201 641T309 686T443 702Q507
702 555 689T630 651T657 596Q657 551 627 528T554 504Q511 504 479 531T429 609Q351 599 305 569T259 494Q259 465 284 446T349 411T434 379T519 339T584 279T609 187Q609 140 586 102T523 35T427 -8T307 -24ZM267 -194Q250 -194 231 -190T200 -178Q211 -137 223
-91T246 7L355 12Q349 -21 344 -54T332 -122Q319 -194 267 -194ZM360 619Q371 666 382 715T406 817Q421 886 475 886Q493 886 511 881T541 867Q523 814 505 752T466 619H360Z" />
<glyph unicode="%" horiz-adv-x="1108" d="M262 272Q177 272 127 324T76 464Q76 537 108 591T199 676T332 707Q345 707 360 705T385 698Q388 695 389 688T392 669Q441 658 466 619T491 515Q491 447 461 392T379 304T262 272ZM267 356Q296 356 319 376T355 430T369
509Q369 604 287 604Q277 604 268 603T248 597Q225 572 212 532T199 455Q199 410 217 383T267 356ZM393 -40Q376 -40 359 -35T330 -21Q378 69 433 179T550 425T680 727Q708 796 764 796Q781 796 798 791T827 777Q756 648 670 463T477 29Q448 -40 393 -40ZM815 -24Q730
-24 680 28T630 169Q630 241 662 295T752 380T886 411Q898 411 913 409T939 402Q942 399 943 392T945 373Q995 362 1020 323T1045 220Q1045 151 1015 96T933 9T815 -24ZM820 60Q850 60 872 80T908 134T922 213Q922 308 840 308Q831 308 821 307T801 301Q778 276
765 236T752 160Q752 114 770 87T820 60Z" />
<glyph unicode="&amp;" horiz-adv-x="760" d="M363 318Q288 318 230 343T140 415T107 520Q107 576 131 622T200 703T306 756T441 775Q523 775 573 745T624 666Q624 628 598 605T526 581Q486 581 456 608T410 682Q336 667 295 626T253 526Q253 491 270 465T318
422T388 406Q461 406 516 419T615 445T697 458Q761 458 761 413Q761 396 756 377T740 340Q716 343 699 344T667 346Q632 346 581 339T473 325T363 318ZM246 -92Q185 -92 139 -70T68 -7T42 89Q42 145 65 197T133 293T236 369L320 364Q255 314 223 260T190 148Q190
87 219 55T306 23Q354 23 397 47T475 114T530 217T554 350L623 356Q626 257 600 176T524 34T403 -59T246 -92Z" />
<glyph unicode="&apos;" horiz-adv-x="235" d="M130 446Q103 446 93 460T83 496Q83 528 96 564T122 638T135 716Q135 739 128 759Q148 770 169 775T208 780Q235 780 244 766T254 730Q254 698 241 662T215 588T202 510Q202 487 209 467Q190 457 169 452T130 446Z" />
<glyph unicode="(" horiz-adv-x="415" d="M233 -156Q168 -156 132 -66T95 191Q95 276 109 362T149 527T205 667T272 765T341 801Q361 801 377 795T408 771Q369 734 335 675T276 543T236 389T222 231Q222 113 248 30T332 -116Q310 -135 285 -145T233 -156Z" />
<glyph unicode=")" horiz-adv-x="415" d="M182 801Q247 801 283 711T320 454Q320 369 306 283T266 118T210 -22T143 -120T74 -156Q54 -156 38 -150T7 -126Q46 -89 80 -30T139 102T179 256T193 414Q193 532 167 615T83 761Q105 780 130 790T182 801Z" />
<glyph unicode="*" horiz-adv-x="592" d="M397 300Q377 300 359 324T328 394T309 507L229 353Q200 358 173 368T129 393T112 421Q112 442 131 465T189 512T285 560L113 589Q110 599 109 611T108 635Q108 675 119 699T150 723Q181 723 212 704T273 656T327 599L299
772Q323 784 348 792T393 800Q422 800 432 790T443 751Q443 731 438 706T419 648T378 571L533 652Q550 637 563 617T585 578T594 544Q594 524 570 513T507 502Q490 502 471 502T427 505T367 516L490 392Q479 368 463 347T429 313T397 300Z" />
<glyph unicode="+" horiz-adv-x="713" d="M311 131Q287 131 280 146T279 202L341 593Q397 614 430 614Q455 614 461 599T462 543L400 152Q373 142 351 137T311 131ZM200 308Q159 308 144 318T129 352Q129 368 134 390T150 437H540Q581 437 596 428T612 393Q612
360 591 308H200Z" />
<glyph unicode="," horiz-adv-x="333" d="M50 -183L37 -147Q64 -133 83 -111T113 -64T124 -18L67 56Q69 82 83 104T120 139T171 152Q213 152 235 124T258 60Q258 2 233 -46T161 -129T50 -183Z" />
<glyph unicode="-" horiz-adv-x="512" d="M117 216Q93 216 79 228T64 274Q64 311 85 353Q98 350 109 349T133 348Q169 348 203 354T269 370T333 387T400 394Q423 394 438 382T453 337Q453 320 448 300T432 258Q419 261 408 262T385 263Q348 263 315 256T249 240T184
223T117 216Z" />
<glyph unicode="." horiz-adv-x="288" d="M137 -25Q102 -25 79 -2T55 55Q55 81 67 103T101 138T151 152Q187 152 210 129T233 72Q233 47 220 25T186 -11T137 -25Z" />
<glyph unicode="/" horiz-adv-x="398" d="M88 -80Q70 -80 52 -75T21 -61Q69 83 123 287T239 767Q254 836 310 836Q328 836 346 831T377 817Q329 674 275 469T159 -11Q144 -80 88 -80Z" />
<glyph unicode="0" horiz-adv-x="729" d="M341 -25Q258 -25 198 13T105 122T72 288Q72 411 120 504T256 648T458 700Q477 700 500 696T539 685Q544 680 546 668T550 637Q617 619 652 555T688 388Q688 300 662 225T588 94T477 7T341 -25ZM350 71Q404 71 446 110T513
219T537 377Q537 479 500 529T384 579Q367 579 349 575T311 564Q282 524 263 475T233 375T222 274Q222 181 257 126T350 71Z" />
<glyph unicode="1" horiz-adv-x="492" d="M267 -25Q223 -25 201 4T179 90Q179 126 182 165T193 251T211 358T239 495Q184 495 149 520T107 592Q164 607 204 625T275 661T328 689T376 700Q426 700 426 644Q426 622 417 579T394 478T368 356T345 226T336 103Q336
74 341 48T356 1Q309 -25 267 -25Z" />
<glyph unicode="2" horiz-adv-x="673" d="M225 66L103 109Q219 180 293 243T404 363T440 469Q440 526 413 555T332 585Q297 585 267 566T218 513T193 432Q153 437 131 460T109 521Q109 575 141 615T231 677T365 700Q433 700 483 676T561 608T589 508Q589 443 553
377T438 236T225 66ZM480 -30Q441 -30 403 -24T321 -4T216 31Q185 2 160 -10T106 -22Q75 -22 54 -1T32 52Q32 99 70 129T165 160Q194 160 234 150T320 126T407 102T480 91L601 152Q615 127 620 109T626 74Q626 45 607 21T554 -16T480 -30Z" />
<glyph unicode="3" horiz-adv-x="663" d="M203 -156Q113 -156 68 -131T23 -57Q23 -24 49 -3T114 19Q147 19 178 -3T229 -64Q284 -64 328 -43T398 15T424 94Q424 122 414 146T388 190T351 216Q321 197 293 187T240 176Q207 176 187 194T166 240Q166 277 199 298T289
320Q373 320 437 293T538 217T574 103Q574 47 547 0T469 -83T351 -137T203 -156ZM400 245L264 280Q318 298 357 326T416 390T437 469Q437 527 410 556T328 585Q290 585 258 566T206 512T179 432Q140 437 118 460T95 521Q95 575 128 615T222 677T362 700Q429 700
479 676T558 609T587 509Q587 438 540 371T400 245Z" />
<glyph unicode="4" horiz-adv-x="688" d="M199 0Q117 0 78 24T38 98Q38 126 53 164T94 247T146 341T198 441T239 540T255 630Q255 643 254 655T247 681Q268 691 289 695T329 700Q426 700 426 591Q426 501 357 381T147 105H446L417 19Q389 14 351 10T274 3T199
0ZM492 -170Q444 -170 418 -141T391 -57Q391 -31 399 11T421 106T455 219T497 341Q510 351 527 359T564 372T599 377Q621 377 629 371T638 349Q638 330 628 290T604 196T580 81T569 -41Q569 -101 593 -142Q563 -157 541 -163T492 -170Z" />
<glyph unicode="5" horiz-adv-x="621" d="M202 -155Q114 -155 71 -131T27 -57Q27 -23 54 -2T120 20Q153 20 183 -2T233 -62Q285 -62 328 -41T396 15T422 95Q422 127 405 161T349 218T242 241Q214 241 191 236T157 231Q146 231 140 238T134 254L192 591L316 546L279
326Q367 326 433 299T536 221T573 106Q573 50 546 2T468 -81T350 -136T202 -155ZM380 522Q262 522 204 549T145 628Q145 663 165 682T223 701Q253 701 279 682T320 628Q356 630 401 641T494 669T585 707Q592 693 595 675T599 638Q599 596 573 571T498 534T380 522Z"
/>
<glyph unicode="6" horiz-adv-x="712" d="M329 -25Q259 -25 204 5T118 97T86 250Q86 342 114 427T189 585T293 712T411 797T526 827Q569 827 592 811T631 756Q583 740 532 715T431 650T337 552T257 412H265Q309 468 356 487T449 506Q516 506 562 477T631 397T655
281Q655 216 629 160T557 63T452 -2T329 -25ZM351 70Q375 70 401 82T451 120T489 184T504 275Q504 309 493 341T455 394T378 415Q349 415 316 394T260 329T237 222Q237 184 247 149T283 92T351 70Z" />
<glyph unicode="7" horiz-adv-x="577" d="M249 -121Q204 -121 177 -97T150 -17Q150 54 180 148T264 349T388 564L539 601Q501 543 463 468T393 307T342 137T322 -26Q322 -48 324 -64T334 -98Q312 -111 291 -116T249 -121ZM346 526Q246 526 185 537T95 572T67 637Q67
656 71 675T84 710Q121 694 164 681T251 657T337 640T412 631Q430 665 458 684T517 704Q554 704 574 687T594 636Q594 581 532 554T346 526Z" />
<glyph unicode="8" horiz-adv-x="665" d="M318 -26Q203 -26 135 23T67 160Q67 188 76 217T109 277T180 339T300 403Q374 435 413 468T467 534T481 598Q481 641 455 665T382 690Q334 690 301 667T267 596Q267 559 292 529T358 471T443 414T528 353T593 281T619
191Q619 127 581 78T475 2T318 -26ZM330 65Q368 65 398 77T448 115T467 177Q467 209 442 237T377 294T292 353T207 418T142 492T116 582Q116 641 149 686T242 755T383 780Q489 780 550 731T611 599Q611 531 553 469T384 358Q330 335 288 304T221 237T197 160Q197
116 235 91T330 65Z" />
<glyph unicode="9" horiz-adv-x="692" d="M196 -152Q153 -152 130 -136T91 -81Q140 -65 191 -40T292 26T386 124T464 263H457Q413 207 366 188T273 169Q206 169 160 198T91 279T67 394Q67 460 93 515T165 612T269 677T393 700Q464 700 518 670T604 578T636 425Q636
333 608 248T533 90T428 -37T310 -122T196 -152ZM344 260Q373 260 405 281T461 346T485 453Q485 491 475 526T439 583T371 605Q347 605 320 593T270 555T232 492T217 400Q217 366 228 334T267 281T344 260Z" />
<glyph unicode=":" horiz-adv-x="333" d="M137 -25Q102 -25 79 -2T55 55Q55 81 67 103T101 138T151 152Q187 152 210 129T233 72Q233 47 220 25T186 -11T137 -25ZM188 382Q153 382 130 405T106 462Q106 488 118 510T152 545T202 559Q238 559 261 536T284 479Q284
454 271 432T237 396T188 382Z" />
<glyph unicode=";" horiz-adv-x="333" d="M50 -183L37 -147Q64 -133 83 -111T113 -64T124 -18L67 56Q69 82 83 104T120 139T171 152Q213 152 235 124T258 60Q258 2 233 -46T161 -129T50 -183ZM188 382Q153 382 130 405T106 462Q106 488 118 510T152 545T202 559Q238
559 261 536T284 479Q284 454 271 432T237 396T188 382Z" />
<glyph unicode="&lt;" horiz-adv-x="756" d="M189 439L571 248Q597 234 610 223T623 198Q623 185 614 170T590 138T562 108L179 300Q153 313 141 324T128 350Q128 362 137 377T161 409T189 439ZM624 629Q643 629 653 612T668 570T675 517L289 342Q273 335 262
331T241 327Q219 327 206 353Q198 368 194 389T189 439L575 614Q590 621 602 625T624 629Z" />
<glyph unicode="=" horiz-adv-x="714" d="M179 176Q138 176 123 186T108 220Q108 236 113 258T129 305H519Q560 305 575 296T591 261Q591 228 570 176H179ZM222 440Q181 440 166 450T151 484Q151 500 156 522T172 569H562Q603 569 618 560T634 525Q634 492 613 440H222Z" />
<glyph unicode="&gt;" horiz-adv-x="756" d="M593 298L211 489Q185 503 172 514T159 539Q159 552 168 567T192 599T220 629L603 437Q629 424 641 413T654 387Q654 375 645 360T621 328T593 298ZM158 108Q139 108 129 125T114 167T107 220L493 395Q509 402 520
406T541 410Q563 410 576 384Q584 369 588 348T593 298L207 123Q192 116 180 112T158 108Z" />
<glyph unicode="?" horiz-adv-x="596" d="M273 248Q233 248 211 270T188 327Q230 331 266 347T331 390T374 452T390 530Q390 580 363 613T282 647Q250 647 218 632T161 583T124 495Q97 495 80 506T55 535T47 575Q47 602 60 636T104 702T184 754T305 775Q395 775
448 741T525 654T549 542Q549 478 526 424T463 330T374 270T273 248ZM195 -25Q160 -25 137 -2T113 55Q113 81 125 103T160 138T209 152Q245 152 268 129T291 72Q291 47 279 25T244 -11T195 -25Z" />
<glyph unicode="@" horiz-adv-x="1080" d="M508 -235Q371 -235 271 -182T116 -32T62 197Q62 324 106 433T231 625T418 754T650 800Q756 800 831 774T955 703T1025 601T1048 482Q1048 412 1023 343T951 216T839 125T692 90L752 171Q798 184 837 215T904 288T948
378T964 474Q964 523 948 568T894 649T795 706T645 728Q544 728 456 690T303 586T200 432T163 243Q163 70 260 -22T543 -115Q655 -115 751 -75T924 44Q932 29 935 13T939 -18Q939 -66 903 -106T804 -174T666 -219T508 -235ZM467 90Q407 90 372 134T336 251Q336
333 374 395T477 492T620 527Q651 527 681 521Q685 512 687 499T689 469Q614 469 564 444T489 375T464 279Q464 240 481 219T527 198Q584 198 618 264T667 469Q700 510 750 510Q772 510 785 497T799 459Q799 440 792 409T776 338T759 258T752 180Q752 161 757 145T772
121Q754 106 734 98T692 90Q658 90 640 109T621 165Q621 171 622 178T624 193L616 196Q593 146 554 118T467 90Z" />
<glyph unicode="A" horiz-adv-x="716" d="M105 -26Q37 -26 37 62Q37 99 52 151T99 273T180 432T297 632L265 687Q303 710 334 720T403 730Q449 730 463 708Q494 730 525 730Q563 730 581 706T599 627Q599 576 598 518T597 398T601 277T611 166T632 72T667 6Q627
-26 576 -26Q539 -26 515 -8T475 53T454 165T447 340Q447 435 447 505T450 621H438Q354 494 299 393T216 216T188 95Q188 40 204 6Q184 -9 159 -17T105 -26ZM154 179L172 265H518L502 179H154Z" />
<glyph unicode="B" horiz-adv-x="756" d="M381 -25Q238 -25 166 9T93 109Q93 136 96 174T108 269T129 406T162 599L125 675Q165 699 202 712T270 726Q319 726 324 672Q428 726 523 726Q603 726 649 686T695 574Q695 508 652 455T528 368Q608 353 653 306T698 189Q698
126 658 78T547 2T381 -25ZM379 61Q454 61 498 96T542 191Q542 249 503 281T392 313Q360 313 324 308T251 292L261 369Q346 373 408 395T505 456T539 543Q539 626 442 626Q410 626 379 620T316 600Q302 534 291 468T270 337T253 208T241 86Q270 75 307 68T379 61Z"
/>
<glyph unicode="C" horiz-adv-x="678" d="M336 -25Q201 -25 124 51T47 265Q47 365 80 449T173 595T313 691T485 726Q564 726 609 700T655 627Q655 589 626 564T554 538Q512 538 474 558T412 627Q352 602 304 548T229 420T202 259Q202 164 238 110T338 56Q388 56
426 81T488 150T514 248Q560 248 586 230T612 171Q612 117 575 73T475 2T336 -25Z" />
<glyph unicode="D" horiz-adv-x="837" d="M328 -25Q213 -25 153 9T93 111Q93 135 97 172T109 267T131 406T165 599L127 675Q168 699 205 712T271 726Q326 726 326 660Q326 650 322 618T310 539T295 438T277 327T261 222T249 134T245 77Q269 68 293 65T344 61Q425
61 486 102T582 217T617 385Q617 504 568 567T425 631Q387 631 360 624T307 602T250 568L237 628Q276 658 310 679T386 713T483 726Q571 726 636 687T737 578T773 411Q773 314 741 235T649 97T508 7T328 -25Z" />
<glyph unicode="E" horiz-adv-x="595" d="M180 -26Q135 -26 114 -3T93 71Q93 98 96 136T108 234T131 382T166 599L128 675Q168 699 205 712T274 726Q328 726 328 660Q328 650 324 620T312 546T296 450T278 345T262 245T250 161T245 105Q245 74 255 53T288 14Q236
-26 180 -26ZM414 -25Q354 -25 297 -11T192 32L215 94H435Q468 98 497 105T555 124Q561 109 563 98T565 73Q565 24 528 0T414 -25ZM357 271Q332 271 306 275T244 288L260 371Q287 367 314 365T372 363L451 382Q452 375 452 367T453 351Q453 313 428 292T357 271ZM468
555Q433 555 397 559T325 572T256 593L276 676Q343 676 395 682T497 697T607 720Q611 706 612 694T613 671Q613 632 594 606T542 568T468 555Z" />
<glyph unicode="F" horiz-adv-x="548" d="M180 -26Q135 -26 114 -3T93 71Q93 98 96 136T108 234T131 382T166 599L128 675Q168 699 205 712T274 726Q328 726 328 660Q328 650 324 620T312 546T296 450T278 345T262 245T250 161T245 105Q245 71 251 47T271 6Q228
-26 180 -26ZM357 271Q332 271 306 275T244 288L260 371Q287 367 314 365T372 363L451 382Q452 375 452 367T453 351Q453 313 428 292T357 271ZM458 555Q423 555 387 559T315 572T246 593L266 676Q333 676 385 682T487 697T597 720Q601 706 602 694T603 671Q603
632 584 606T532 568T458 555Z" />
<glyph unicode="G" horiz-adv-x="734" d="M345 -30Q205 -30 126 48T47 265Q47 365 81 449T178 595T323 691T500 726Q582 726 628 700T674 627Q674 589 645 564T570 538Q528 538 489 558T425 627Q361 602 311 548T231 420T202 259Q202 164 240 110T345 56Q400 56
442 84T508 160T536 267Q550 267 558 249T567 188Q567 128 537 79T457 0T345 -30ZM524 -185Q481 -185 461 -166T441 -107Q441 -89 446 -55T463 31L557 207L536 267L467 322Q500 346 540 361T615 377Q649 377 663 365T677 323Q677 314 668 281T646 200T619 99T596
-6T587 -98Q587 -118 592 -132T609 -156Q589 -170 568 -177T524 -185Z" />
<glyph unicode="H" horiz-adv-x="818" d="M623 -26Q578 -26 557 -3T536 71Q536 98 539 136T551 233T574 382T610 599L571 675Q611 699 648 712T717 726Q771 726 771 660Q771 650 767 620T755 546T739 450T721 345T705 245T693 161T689 105Q689 71 695 47T714 6Q670
-26 623 -26ZM180 -26Q135 -26 114 -3T93 71Q93 98 96 136T108 233T131 382T166 599L128 675Q168 699 205 712T274 726Q328 726 328 660Q328 650 324 620T312 546T296 450T278 345T262 245T250 161T245 105Q245 71 251 47T271 6Q227 -26 180 -26ZM209 284L227 369H623L607
284H209Z" />
<glyph unicode="I" horiz-adv-x="375" d="M180 -25Q135 -25 114 -2T93 72Q93 99 96 137T108 234T131 383T166 599L128 675Q168 699 205 712T274 726Q328 726 328 660Q328 650 324 620T312 546T296 451T278 346T262 246T250 162T245 106Q245 72 251 48T271 7Q227
-25 180 -25Z" />
<glyph unicode="J" horiz-adv-x="561" d="M168 -25Q125 -25 89 -12T31 25T8 83Q8 116 31 139T94 162Q127 162 152 144T194 95T219 25L190 54Q219 59 240 69T276 103T302 167T322 273L367 599L527 660L473 273Q460 190 435 133T371 41T282 -9T168 -25ZM350 538Q208
538 148 565T87 656Q87 675 91 695T102 732Q143 711 192 693T290 663T374 649Q389 687 414 706T474 726Q512 726 533 707T554 650Q554 595 504 567T350 538Z" />
<glyph unicode="K" horiz-adv-x="703" d="M199 230L197 300L318 390Q378 434 419 470T485 539T522 600T534 658Q534 668 532 677T526 696Q570 725 617 725Q652 725 673 705T694 650Q694 609 666 567T577 476T421 368L199 230ZM180 -26Q135 -26 114 -3T93 71Q93
99 97 138T109 236T131 384T166 599L128 675Q169 699 206 712T274 726Q328 726 328 660Q328 650 324 620T312 546T296 450T278 345T262 245T250 161T245 105Q245 71 251 47T271 6Q227 -26 180 -26ZM585 -25Q550 -25 525 -11T478 39T427 144L343 342L469 429Q494
357 522 291T579 170T635 74T687 15Q678 4 660 -5T622 -19T585 -25Z" />
<glyph unicode="L" horiz-adv-x="546" d="M180 -26Q135 -26 114 -3T93 71Q93 99 96 137T108 234T130 382T166 599L128 675Q168 699 205 712T274 726Q328 726 328 660Q328 650 324 620T312 546T296 450T278 345T262 245T250 161T245 105Q245 74 255 53T288 14Q235
-26 180 -26ZM376 -25Q325 -25 275 -14T181 21L220 94H389Q422 98 451 105T510 124Q515 109 517 98T519 73Q519 24 484 0T376 -25Z" />
<glyph unicode="M" horiz-adv-x="1028" d="M180 -26Q134 -26 114 -2T93 75Q93 102 97 141T109 240T131 388T165 599L127 675Q164 698 201 712T271 726Q308 726 334 715T382 672T420 582T457 431T499 203H510Q529 275 559 349T630 490T717 610T815 693T920 724Q942
724 955 716T974 693T981 656Q981 647 977 617T965 543T949 448T932 345T916 246T904 162T900 107Q900 73 906 48T925 4Q879 -27 834 -27Q789 -27 769 -3T749 74Q749 101 752 139T763 232T783 367T814 557H807Q768 520 736 471T678 368T633 261T601 160T584 79Q563
61 539 51T492 41Q468 41 450 51T417 90T388 177T357 326T317 557H310Q302 508 293 455T275 348T260 248T249 164T245 108Q245 73 251 49T271 6Q248 -10 226 -18T180 -26Z" />
<glyph unicode="N" horiz-adv-x="850" d="M655 -26Q618 -26 589 -18T536 13T489 79T442 190T390 356T327 589H274L273 726Q310 726 338 714T391 669T441 572T496 407T566 155L653 154L655 -26ZM180 -26Q135 -26 114 -3T93 71Q93 98 96 136T108 233T131 382T166
599L128 675Q168 699 205 712T274 726Q328 726 328 660Q328 650 324 620T312 546T296 450T278 345T262 245T250 161T245 105Q245 71 251 47T271 6Q227 -26 180 -26ZM655 -26Q609 -26 589 -3T568 72Q568 99 571 137T582 234T605 382T642 600L605 675Q644 700 681
713T749 726Q803 726 803 661Q803 651 799 621T787 546T771 450T753 346T737 245T725 161T720 105Q720 71 726 48T746 5Q723 -11 701 -18T655 -26Z" />
<glyph unicode="O" horiz-adv-x="753" d="M339 -25Q251 -25 185 13T83 120T47 282Q47 384 77 465T161 605T284 694T429 725Q485 725 510 708T535 654Q535 642 534 632T526 609Q515 612 498 614T467 617Q392 617 332 575T238 457T203 284Q203 170 249 113T372 56Q412
56 452 75T527 129T587 213T620 324Q553 354 528 399T503 495Q503 529 517 556T555 599T610 615Q667 615 698 567T729 436Q729 338 700 254T619 108T495 10T339 -25Z" />
<glyph unicode="P" horiz-adv-x="700" d="M384 205Q329 205 287 219T205 260L230 329Q253 312 281 305T338 297Q399 297 443 321T511 389T536 486Q536 524 523 556T481 609T401 629Q364 629 327 612T248 563V623Q279 652 310 674T381 710T477 724Q547 724 595
693T667 610T692 500Q692 445 674 392T618 297T522 230T384 205ZM180 -26Q135 -26 114 -3T93 71Q93 98 96 136T108 233T131 382T166 599L128 675Q168 699 205 712T274 726Q328 726 328 660Q328 650 324 620T312 546T296 450T278 345T262 245T250 161T245 105Q245
71 251 47T271 6Q227 -26 180 -26Z" />
<glyph unicode="Q" horiz-adv-x="753" d="M545 -195Q490 -195 437 -175T337 -128T259 -80Q239 -109 212 -123T156 -138Q128 -138 111 -120T93 -75Q93 -43 118 -22T186 0Q232 0 281 -11T386 -33T500 -45Q546 -45 587 -39T668 -19Q671 -31 672 -43T674 -69Q674 -106
659 -134T615 -179T545 -195ZM339 -25Q251 -25 185 13T83 120T47 282Q47 384 77 465T161 605T284 694T429 725Q485 725 510 708T535 654Q535 642 534 632T526 609Q515 612 498 614T467 617Q392 617 332 575T238 457T203 284Q203 170 249 113T372 56Q412 56 452
75T527 129T587 213T620 324Q553 354 528 399T503 495Q503 529 517 556T555 599T610 615Q667 615 698 567T729 436Q729 338 700 254T619 108T495 10T339 -25Z" />
<glyph unicode="R" horiz-adv-x="732" d="M384 243Q332 243 294 255T214 298L230 367Q253 350 281 343T338 335Q399 335 443 356T511 415T536 501Q536 534 523 563T481 611T401 629Q364 629 327 612T248 563V623Q279 652 310 674T381 710T477 724Q547 724 595
694T667 617T692 515Q692 466 674 418T618 331T522 267T384 243ZM180 -26Q135 -26 114 -3T93 71Q93 98 96 136T108 233T131 382T166 599L128 675Q168 699 205 712T274 726Q328 726 328 660Q328 649 322 612T307 522T287 409T267 291T251 183T245 105Q245 71 251
47T271 6Q227 -26 180 -26ZM605 -25Q570 -25 545 -11T497 39T446 144L389 279L523 334Q554 259 586 195T649 84T707 15Q697 4 679 -5T641 -19T605 -25Z" />
<glyph unicode="S" horiz-adv-x="720" d="M321 -25Q239 -25 180 -10T91 35T60 105Q60 129 72 151T105 188Q139 129 192 96T313 62Q388 62 437 87T487 166Q487 193 467 212T412 246T337 275T255 307T180 349T124 409T103 495Q103 548 130 590T205 663T320 710T465
726Q533 726 583 713T663 675T692 618Q692 572 661 548T585 524Q537 524 504 551T452 632Q363 622 312 590T260 512Q260 485 280 467T335 435T410 406T492 375T567 334T622 276T643 193Q643 145 620 105T554 36T452 -9T321 -25Z" />
<glyph unicode="T" horiz-adv-x="581" d="M273 -26Q228 -26 208 -2T188 75Q188 113 196 184T223 369T269 644L417 615Q410 568 400 509T379 388T360 270T346 171T340 108Q340 73 346 49T365 6Q320 -26 273 -26ZM507 555Q461 555 416 562T326 577T232 586L73 557Q67
570 64 585T61 620Q61 672 92 693T176 715Q221 715 266 708T357 693T451 684L609 713Q615 701 618 685T621 650Q621 606 591 581T507 555Z" />
<glyph unicode="U" horiz-adv-x="815" d="M617 -26Q587 -26 569 -12T542 28T533 85Q533 110 537 136T548 188H541Q511 130 467 82T367 5T247 -24Q205 -24 176 -10T128 28T102 83T93 149Q93 172 96 204T107 286T128 412T163 599L126 675Q167 701 203 713T270 726Q325
726 325 660Q325 651 319 618T304 537T284 436T264 333T249 243T243 185Q243 138 259 112T322 85Q360 85 403 114T487 197T554 321Q550 342 547 372T543 438Q543 477 548 518T565 596T596 662T642 709T706 726Q724 726 742 721T778 705Q763 652 747 578T716 420T692
255T683 108Q683 40 705 6Q683 -10 662 -18T617 -26Z" />
<glyph unicode="V" horiz-adv-x="651" d="M242 -30Q185 -30 152 -7T104 70T89 219Q89 292 90 362T87 494T68 607T20 694Q63 726 112 726Q160 726 188 692T228 579T240 361Q240 287 240 238T240 159T239 111T237 79H249Q339 214 394 314T474 483T500 594Q500 623
495 647T476 694Q507 712 531 719T580 726Q613 726 632 702T651 635Q651 600 636 549T589 429T508 270T391 69L409 28Q391 11 363 -2T303 -22T242 -30Z" />
<glyph unicode="W" horiz-adv-x="1005" d="M196 -30Q140 -30 119 12T98 135Q98 221 99 303T96 458T74 592T20 694Q64 726 115 726Q166 726 194 692T235 579T248 361Q248 287 248 238T247 159T247 111T246 79H259Q338 174 388 259T465 410T503 518T513 565Q513
579 506 596T491 630T479 656Q500 675 516 682T549 690Q585 690 607 667T629 599Q629 567 620 530T592 451T546 358T484 248Q437 166 399 112T329 27T264 -17T196 -30ZM626 -30Q577 -30 551 -8T514 54T499 150L461 656Q477 673 500 681T549 690L582 618L604 79H616Q700
214 752 314T828 483T852 594Q852 623 846 647T827 694Q857 712 881 719T932 726Q966 726 985 702T1004 635Q1004 600 989 549T944 429T866 270T755 69L775 28Q760 11 735 -2T682 -22T626 -30Z" />
<glyph unicode="X" horiz-adv-x="778" d="M604 -30Q573 -30 548 -17T499 26T447 108L239 496Q216 540 192 570T141 619T79 650Q102 687 135 706T206 726Q238 726 263 713T312 670T364 587L572 200Q596 156 619 126T669 78T730 45Q708 9 675 -10T604 -30ZM108 -30Q73
-30 53 -7T33 55Q33 83 49 112T104 180T215 271L362 382L406 300Q293 224 244 161T194 50Q194 36 197 25T204 2Q186 -11 160 -20T108 -30ZM436 314L391 396Q505 474 554 536T604 646Q604 674 595 694Q612 707 638 716T690 726Q724 726 744 703T765 640Q765 615
750 585T695 517T585 426L436 314Z" />
<glyph unicode="Y" horiz-adv-x="808" d="M99 -242Q19 -242 -19 -213T-57 -137Q-57 -117 -48 -97T-27 -63Q-15 -79 3 -94T50 -119T122 -129Q161 -129 212 -112T318 -57T426 38T520 176T588 360T613 594Q613 623 608 647T590 694Q620 712 645 719T693 726Q727 726
745 702T764 635Q764 559 749 475T704 306T632 141T533 -8T410 -130T265 -212T99 -242ZM385 -30Q319 -30 278 -6T214 61T181 157T169 273T166 395T160 514T140 617T94 694Q137 726 184 726Q236 726 264 697T304 617T318 506T320 378T322 250T339 138T383 59T468
29L385 -30Z" />
<glyph unicode="Z" horiz-adv-x="673" d="M245 92L108 118L422 569L598 599L245 92ZM476 -30Q436 -30 398 -24T315 -5T207 31Q177 3 152 -9T98 -22Q65 -22 44 -1T23 52Q23 99 61 130T157 161Q186 161 227 151T314 126T402 102T476 92L598 153Q612 129 617 111T623
75Q623 45 604 22T551 -16T476 -30ZM385 538Q283 538 221 550T130 588T101 656Q101 675 106 695T119 732Q159 716 203 702T295 676T385 658T462 649Q483 685 513 705T575 726Q615 726 636 707T658 654Q658 597 590 568T385 538Z" />
<glyph unicode="[" horiz-adv-x="415" d="M202 -156Q162 -156 134 -142T92 -90T77 15Q77 101 85 188T111 372T155 584Q175 671 200 718T262 782T353 800Q389 800 413 791T448 765T460 723Q460 716 460 706T457 684Q449 687 426 690T378 696T336 698Q310 630 288
540T251 348T226 142T217 -56Q234 -56 257 -54T301 -49T330 -42Q333 -52 334 -64T336 -82Q336 -117 304 -136T202 -156Z" />
<glyph unicode="\" horiz-adv-x="676" d="M448 -80Q466 -80 484 -75T515 -61Q467 83 413 287T297 767Q282 836 226 836Q208 836 190 831T159 817Q207 674 261 469T377 -11Q392 -80 448 -80Z" />
<glyph unicode="]" horiz-adv-x="415" d="M224 800Q264 800 292 786T334 734T349 629Q349 543 341 456T315 272T271 60Q251 -27 226 -74T164 -138T73 -156Q37 -156 13 -147T-22 -121T-34 -79Q-34 -72 -34 -62T-31 -40Q-23 -43 0 -46T48 -52T90 -54Q116 14 138
104T175 296T200 502T209 700Q192 700 169 698T125 693T96 686Q93 696 92 708T90 726Q90 761 122 780T224 800Z" />
<glyph unicode="^" d="M191 451Q181 451 168 459T141 481T112 512L364 886Q383 914 397 926T423 938H468Q481 938 490 927T510 886L644 512Q626 496 607 482T571 460T545 451Q532 451 523 463T503 503L400 790L439 785L249 503Q230 475 217 463T191 451Z" />
<glyph unicode="_" horiz-adv-x="665" d="M56 -188Q8 -188 -9 -176T-27 -132Q-27 -112 -21 -88T-6 -38Q16 -46 48 -51T118 -57Q156 -57 200 -52T292 -41T389 -29T483 -23Q531 -23 548 -35T566 -79Q566 -99 561 -122T545 -174Q523 -165 492 -160T422 -155Q384 -155
340 -160T247 -171T151 -183T56 -188Z" />
<glyph unicode="`" horiz-adv-x="600" d="M300 666Q281 666 256 676T198 698T126 721T42 731Q38 744 36 759T33 791Q33 859 90 859Q118 859 143 845T197 808T261 764T343 724Q339 696 328 681T300 666Z" />
<glyph unicode="a" horiz-adv-x="747" d="M249 -25Q194 -25 153 4T88 86T65 210Q65 294 94 365T176 489T299 571T454 600Q498 600 543 592Q549 581 552 566T555 534Q476 534 413 511T304 445T235 346T211 224Q211 162 236 128T309 93Q396 93 451 202T533 534Q549
554 571 564T618 575Q646 575 661 561T677 520Q677 489 666 440T641 331T615 205T604 73Q604 29 626 9Q606 -8 584 -16T540 -25Q501 -25 480 -2T459 66Q459 78 460 91T465 119L455 124Q421 53 367 14T249 -25Z" />
<glyph unicode="b" horiz-adv-x="745" d="M235 -25Q190 -25 158 -12T108 33T91 121Q91 152 97 202T115 320T143 475T181 663L133 722Q163 745 201 759T270 774Q304 774 318 761T333 714Q333 680 315 610T275 448L285 443Q320 518 375 559T497 600Q553 600 593
572T657 493T680 373Q680 288 647 216T554 89T412 5T235 -25ZM212 52Q281 55 340 79T442 144T510 238T535 351Q535 413 509 447T436 482Q393 482 353 452T281 364T231 228T212 52Z" />
<glyph unicode="c" horiz-adv-x="625" d="M316 -25Q201 -25 135 40T68 222Q68 304 96 373T174 492T291 571T436 600Q506 600 547 576T588 511Q588 477 563 455T499 432Q462 432 430 450T378 510Q331 490 294 447T236 345T214 218Q214 141 242 97T320 53Q360 53
391 74T442 130T463 210Q508 210 532 193T557 141Q557 96 525 58T438 -2T316 -25Z" />
<glyph unicode="d" horiz-adv-x="748" d="M248 -25Q193 -25 152 4T87 86T64 210Q64 288 93 355T175 471T298 547T453 575Q503 575 542 567Q548 555 551 541T554 509Q477 509 414 488T305 429T235 338T210 224Q210 162 235 128T308 93Q341 93 374 112T435 167T482
254L474 116L453 124Q420 53 366 14T248 -25ZM539 -25Q499 -25 480 -1T461 74Q461 92 465 130T477 220T494 331T514 450T534 565T551 664L503 723Q534 746 571 760T640 775Q674 775 688 762T703 715Q703 689 693 642T669 532T640 396T615 244T605 85Q605 57 611
39T629 9Q610 -7 587 -16T539 -25Z" />
<glyph unicode="e" horiz-adv-x="653" d="M305 -25Q194 -25 131 40T67 221Q67 303 95 372T173 492T291 571T439 600Q522 600 568 563T615 456Q615 385 565 335T419 258T188 232L200 293Q336 295 411 336T486 452Q486 483 468 502T417 521Q376 521 340 497T275
431T230 334T214 216Q214 140 242 97T319 53Q380 53 418 93T460 199Q505 199 529 183T554 131Q554 90 521 55T432 -3T305 -25Z" />
<glyph unicode="f" horiz-adv-x="435" d="M174 -200Q136 -200 115 -177T94 -110Q94 -56 119 79T192 445Q188 485 186 519T183 584Q183 654 203 699T260 765T343 787Q388 787 417 763T446 702Q446 666 422 643T357 620Q335 620 315 626T278 647L267 639L327 404Q308
330 293 255T265 111T247 -13T241 -102Q241 -148 265 -166Q213 -200 174 -200ZM92 346Q85 364 85 383Q85 410 99 426T139 451T197 460Q226 460 263 464T338 475T407 494Q414 476 414 457Q414 431 399 414T359 389T302 380Q273 380 236 376T161 365T92 346Z" />
<glyph unicode="g" horiz-adv-x="681" d="M161 -236Q82 -236 36 -210T-11 -141Q-11 -117 3 -93T41 -53Q64 -93 99 -112T181 -131Q221 -131 266 -113T355 -50T433 71T485 261T499 534Q524 559 543 568T584 577Q635 577 635 529Q635 413 619 302T569 93T480 -78T345
-194T161 -236ZM222 6Q166 6 124 34T58 114T34 235Q34 313 60 380T137 496T259 572T419 600Q468 600 508 592Q514 580 517 566T520 534Q444 534 382 513T274 452T204 361T180 246Q180 179 207 142T283 104Q306 104 334 116T391 156T444 234T483 357T498 534L502
149H438Q404 81 346 44T222 6Z" />
<glyph unicode="h" horiz-adv-x="745" d="M159 -25Q115 -25 95 -3T75 62Q75 84 82 130T100 239T125 374T153 521T181 664L133 723Q163 746 200 760T270 775Q304 775 318 762T332 715Q332 690 323 648T300 548T268 411L278 406Q318 476 364 519T459 581T554 600Q617
600 648 569T680 471Q680 426 670 378T647 279T623 176T613 73Q613 53 617 36T629 9Q591 -25 551 -25Q506 -25 487 -3T468 62Q468 103 477 152T499 252T521 346T530 424Q530 456 518 474T478 493Q439 493 394 463T310 377T246 244T221 73Q221 53 224 36T236 9Q199
-25 159 -25Z" />
<glyph unicode="i" horiz-adv-x="388" d="M175 -25Q132 -25 112 -4T91 62Q91 83 96 119T111 208T136 330T171 488L123 548Q154 572 192 586T262 600Q295 600 309 586T323 539Q323 531 317 504T301 436T280 349T259 251T243 156T237 73Q237 51 242 35T259 9Q219
-25 175 -25ZM255 676Q219 676 197 694T174 741Q174 766 188 785T226 815T277 826Q314 826 336 809T358 762Q358 738 344 718T307 687T255 676Z" />
<glyph unicode="j" horiz-adv-x="397" d="M47 -210Q3 -210 -18 -188T-40 -133Q-40 -97 -16 -77T49 -56Q75 -56 93 -66T124 -86L133 -72Q117 -55 108 -40T95 -6T91 35Q91 55 98 101T117 210T142 346T165 488L118 548Q148 572 186 586T256 600Q289 600 303 586T317
539Q317 530 312 499T299 421T281 320T259 205T236 90T215 -16Q203 -72 181 -116T126 -185T47 -210ZM249 686Q213 686 191 701T168 742Q168 764 182 780T220 806T271 816Q307 816 329 801T352 761Q352 740 338 723T301 696T249 686Z" />
<glyph unicode="k" horiz-adv-x="672" d="M197 152L206 224L328 320Q372 356 408 391T466 463T488 537Q488 546 486 555T481 575Q502 587 524 593T565 600Q600 600 620 580T640 524Q640 470 591 414T431 292L197 152ZM168 -25Q129 -25 110 -1T91 74Q91 92 95 130T107
220T124 331T144 450T164 565T181 664L133 723Q163 746 200 760T270 775Q304 775 318 762T332 715Q332 689 323 642T299 532T269 396T245 244T235 85Q235 57 241 39T258 9Q240 -7 217 -16T168 -25ZM552 -25Q509 -25 479 2T412 94L316 269L434 348L529 175Q552 133
581 99T663 44Q643 9 614 -8T552 -25Z" />
<glyph unicode="l" horiz-adv-x="378" d="M168 -25Q129 -25 110 -1T91 74Q91 92 95 130T107 220T124 331T144 450T164 565T181 664L133 723Q163 746 200 760T270 775Q304 775 318 762T332 715Q332 698 325 660T307 570T284 458T260 332T242 204T235 85Q235 57
241 39T258 9Q240 -7 217 -16T168 -25Z" />
<glyph unicode="m" horiz-adv-x="1121" d="M172 -25Q128 -25 109 -3T89 62Q89 83 94 119T107 203T126 301T148 401T169 489L122 548Q151 570 188 584T258 598Q292 598 306 584T320 537Q320 511 312 480T292 422L302 417Q357 518 419 559T553 600Q614 600 643 568T673
478Q673 466 672 452T665 422L675 417Q731 518 794 559T930 600Q994 600 1025 569T1057 471Q1057 426 1047 378T1024 279T1000 176T990 73Q990 53 994 36T1005 9Q969 -25 928 -25Q884 -25 865 -3T845 61Q845 103 854 152T876 251T898 346T907 423Q907 456 895 474T854
493Q817 493 775 463T696 377T636 244T612 73Q612 53 616 36T627 9Q591 -25 550 -25Q506 -25 487 -3T467 61Q467 103 476 152T498 251T520 346T530 423Q530 456 518 474T477 493Q439 493 397 463T318 377T258 244T235 73Q235 53 238 36T249 9Q213 -25 172 -25Z"
/>
<glyph unicode="n" horiz-adv-x="758" d="M172 -25Q129 -25 109 -4T89 62Q89 84 95 130T114 238T140 364T169 489L122 548Q151 570 188 584T258 598Q292 598 306 584T320 537Q320 511 312 480T292 422L302 417Q355 510 421 555T567 600Q631 600 662 569T693 471Q693
426 683 378T660 279T636 176T626 73Q626 29 642 9Q605 -25 564 -25Q521 -25 501 -4T481 62Q481 103 490 152T512 252T534 346T543 424Q543 459 530 476T491 493Q453 493 417 470T348 408T290 315T250 200T235 73Q235 29 249 9Q212 -25 172 -25Z" />
<glyph unicode="o" horiz-adv-x="723" d="M320 -25Q244 -25 188 7T101 99T70 238Q70 318 96 384T171 499T284 573T429 600Q449 600 467 599T504 592Q511 580 513 566T516 534Q421 534 354 494T252 387T217 233Q217 145 248 99T338 53Q391 53 433 82T502 166T537
293Q497 317 479 348T460 422Q460 453 472 477T506 514T554 528Q604 528 633 486T662 370Q662 287 636 216T563 90T454 6T320 -25Z" />
<glyph unicode="p" horiz-adv-x="767" d="M315 0Q268 0 225 8Q219 20 216 34T213 66Q316 66 394 102T515 202T558 351Q558 413 532 447T459 482Q412 482 371 437T296 306T237 100L253 476L314 440Q348 516 402 558T520 600Q575 600 616 571T680 489T703 365Q703
287 674 220T593 104T470 28T315 0ZM157 -200Q118 -200 99 -177T79 -104Q79 -85 86 -30T105 106T134 286T169 489L121 548Q152 572 189 586T258 600Q293 600 306 587T320 540Q320 514 311 467T287 357T257 221T233 68T223 -91Q223 -116 229 -134T247 -166Q229 -181
206 -190T157 -200Z" />
<glyph unicode="q" horiz-adv-x="737" d="M475 -199Q442 -199 428 -185T413 -139Q413 -106 429 -38T465 119L455 124Q421 53 367 14T249 -25Q194 -25 153 4T88 86T65 210Q65 294 94 365T176 489T299 571T454 600Q500 600 543 592Q549 581 552 566T555 534Q476
534 413 511T304 445T235 346T211 224Q211 162 236 128T309 93Q353 93 393 124T464 214T514 353T533 534Q551 556 573 565T618 575Q646 575 661 561T677 520Q677 491 667 433T640 293T603 114T565 -88L612 -147Q582 -170 545 -184T475 -199Z" />
<glyph unicode="r" horiz-adv-x="508" d="M172 -25Q129 -25 109 -2T89 71Q89 91 95 136T113 241T139 366T168 489L122 548Q150 570 178 584T235 598Q268 598 282 580T297 537Q297 503 286 467T259 390L269 385Q298 456 328 504T391 576T463 600Q500 600 520 582T540
529Q540 490 512 466T435 442Q396 442 360 412T296 329T251 211T234 73Q234 29 249 9Q212 -25 172 -25Z" />
<glyph unicode="s" horiz-adv-x="626" d="M271 -25Q198 -25 148 -12T73 26T47 84Q47 105 60 126T97 162Q123 113 165 86T263 59Q301 59 333 68T386 98T406 150Q406 174 383 190T322 218T244 244T166 278T106 328T82 406Q82 452 105 488T169 549T266 587T387 600Q476
600 530 574T584 505Q584 465 557 444T490 423Q452 423 422 448T375 520Q306 512 265 486T223 422Q223 398 246 383T306 354T384 328T462 294T522 243T546 164Q546 121 525 86T466 27T378 -11T271 -25Z" />
<glyph unicode="t" horiz-adv-x="451" d="M212 -25Q190 -25 172 -18T142 11T130 73Q130 114 139 165T161 270T188 377T211 475T220 551Q220 573 216 598T204 649Q227 671 260 684T329 698Q361 698 375 684T390 636Q390 610 379 568T351 471T317 354T289 223T276
85L315 19Q292 -3 265 -14T212 -25ZM153 434Q122 434 111 444T99 477Q99 489 102 503T115 532Q133 526 159 524T207 522Q261 522 315 532T423 543Q454 543 465 533T476 499Q476 488 472 474T460 446Q443 451 417 453T370 456Q317 456 262 445T153 434Z" />
<glyph unicode="u" horiz-adv-x="749" d="M244 -25Q163 -25 124 15T85 137Q85 179 92 226T109 319T126 408T133 485Q133 509 130 530T119 566Q146 581 174 590T221 600Q254 600 269 585T284 533Q284 511 278 474T262 393T244 304T229 223T222 166Q222 115 244
90T309 64Q363 64 410 103T485 211L484 57L443 78Q421 48 389 25T319 -12T244 -25ZM536 -25Q493 -25 473 0T453 79Q453 104 461 154T486 285T530 481L484 548Q508 565 532 576T579 594T623 600Q656 600 670 586T684 539Q684 531 678 504T662 436T642 349T621 251T605
156T599 73Q599 27 620 9Q582 -25 536 -25Z" />
<glyph unicode="v" horiz-adv-x="671" d="M265 -25Q213 -25 182 -6T138 60T124 183Q124 244 125 301T123 408T106 500T65 570Q104 600 151 600Q193 600 218 574T254 484T265 310Q265 255 265 216T265 150T264 105T263 72H273Q348 179 394 260T463 399T485 489Q485
535 464 570Q490 585 513 592T561 600Q592 600 609 580T627 523Q627 495 615 456T576 363T508 236T408 71L426 34Q408 17 381 4T324 -17T265 -25Z" />
<glyph unicode="w" horiz-adv-x="927" d="M221 -25Q168 -25 147 8T126 128Q126 197 127 262T125 385T108 490T65 570Q104 600 151 600Q193 600 218 574T254 484T265 310Q265 255 265 216T265 150T265 105T264 72H274Q332 143 370 209T429 328T458 415T467 459Q467
472 461 486T448 515T436 540Q454 555 469 562T500 570Q534 570 552 550T570 491Q570 453 556 407T515 308T454 192Q419 131 390 90T335 23T281 -13T221 -25ZM569 -25Q527 -25 503 -6T469 49T455 138L424 541Q441 557 461 563T500 570L530 511L548 72H558Q623 179
663 260T722 399T741 489Q741 535 721 570Q746 585 769 592T817 600Q849 600 865 580T882 523Q882 495 872 456T838 363T780 236T692 71L711 34Q695 17 671 4T621 -17T569 -25Z" />
<glyph unicode="x" horiz-adv-x="671" d="M507 -25Q481 -25 459 -15T418 21T375 89L205 400Q186 435 167 459T125 501T71 530Q92 565 122 582T188 600Q216 600 237 590T278 554T320 485L490 175Q509 140 528 115T570 73T624 44Q603 10 573 -7T507 -25ZM100 -25Q69
-25 51 -4T32 51Q32 76 46 103T96 162T191 236L307 321L350 243Q262 185 223 135T183 46Q183 34 185 24T191 5Q172 -8 148 -16T100 -25ZM378 255L335 332Q423 392 463 441T503 529Q503 542 501 552T495 570Q513 584 537 592T585 601Q616 601 635 580T654 524Q654
500 640 473T591 414T495 340L378 255Z" />
<glyph unicode="y" horiz-adv-x="681" d="M80 -200Q9 -200 -25 -175T-60 -107Q-60 -88 -51 -69T-31 -38Q-20 -52 -5 -65T35 -86T97 -95Q131 -95 174 -81T263 -36T354 44T433 160T489 316T510 514Q510 526 510 542T507 570Q529 585 549 592T589 600Q618 600 636
585T654 531Q654 461 637 380T585 217T501 60T387 -73T246 -166T80 -200ZM315 -25Q249 -25 212 0T157 70T134 168T128 281T124 395T109 496T66 570Q104 600 150 600Q195 600 220 576T255 511T268 420T270 315T271 211T285 119T321 54T392 30L315 -25Z" />
<glyph unicode="z" horiz-adv-x="606" d="M231 80L99 106L360 458L527 483L231 80ZM414 -25Q353 -25 302 -10T194 25Q168 2 145 -8T96 -18Q62 -18 45 4T27 53Q27 77 40 100T81 138T151 153Q174 153 208 144T280 123T353 102T414 93L525 146Q534 129 540 111T546
72Q546 44 528 22T480 -12T414 -25ZM322 425Q237 426 187 437T114 474T92 539Q92 552 94 567T103 605Q136 591 176 578T256 555T332 538T392 530Q406 561 434 580T494 600Q532 600 553 582T574 531Q574 503 558 483T509 450T430 431T322 425Z" />
<glyph unicode="{" horiz-adv-x="383" d="M170 -156Q108 -156 78 -125T47 -28Q47 12 57 66T86 183T137 306Q126 302 112 302Q91 302 75 315T59 350Q59 369 74 382T111 396Q135 396 150 382Q149 411 148 449T147 525T146 591Q146 661 161 703T201 766T258 793T322
800Q376 800 403 781T430 723Q430 716 429 705T426 684Q418 687 395 690T347 696T305 698Q292 608 279 549T250 451T217 389T176 344Q200 317 214 279T228 198Q228 192 227 181T222 144T210 70T186 -56Q203 -56 226 -54T270 -49T299 -42Q302 -52 303 -64T305 -82Q305
-117 272 -136T170 -156Z" />
<glyph unicode="|" horiz-adv-x="459" d="M124 -180Q91 -180 77 -166T63 -117L263 764L247 848Q271 863 300 871T355 880Q388 880 402 866T416 817L216 -64L232 -148Q207 -162 178 -171T124 -180Z" />
<glyph unicode="}" horiz-adv-x="383" d="M224 800Q286 800 316 769T347 672Q347 632 337 578T308 461T257 338Q268 342 282 342Q303 342 319 329T335 294Q335 275 320 262T283 248Q259 248 244 262Q245 233 246 195T247 119T248 53Q248 -17 233 -59T193 -122T136
-149T72 -156Q18 -156 -9 -137T-36 -79Q-36 -72 -35 -61T-32 -40Q-24 -43 -1 -46T47 -52T89 -54Q102 36 115 95T144 193T177 255T218 300Q194 327 180 365T166 446Q166 452 167 463T172 500T184 574T208 700Q191 700 168 698T124 693T95 686Q92 696 91 708T89 726Q89
761 122 780T224 800Z" />
<glyph unicode="~" horiz-adv-x="716" d="M185 279Q151 279 139 291T126 334Q126 348 131 367T147 409Q206 409 266 417T381 437T482 458T558 467Q592 467 604 455T617 412Q617 398 612 379T596 337Q537 337 477 329T362 308T261 288T185 279Z" />
<glyph unicode="&#xa0;" horiz-adv-x="317" />
<glyph unicode="&#xa1;" horiz-adv-x="381" d="M221 317Q250 317 260 301T270 258Q270 241 265 210T254 140T240 62T228 -14T223 -75Q223 -95 227 -118T244 -155Q221 -177 190 -188T122 -200Q75 -200 56 -174T36 -109Q36 -85 44 -46T65 41T95 135T126 223T152
290Q167 303 187 310T221 317ZM264 600Q299 600 322 577T346 520Q346 494 334 472T299 437T250 423Q214 423 191 446T168 503Q168 528 181 550T215 586T264 600Z" />
<glyph unicode="&#xa2;" horiz-adv-x="569" d="M291 74Q186 74 127 130T67 289Q67 357 91 415T160 515T264 581T392 605Q456 605 493 583T531 524Q531 493 509 473T452 453Q418 453 389 470T342 522Q302 506 271 471T221 388T203 285Q203 219 228 182T295 145Q330
145 357 162T401 210T419 277Q461 277 483 262T506 214Q506 176 477 144T400 93T291 74ZM244 -71Q227 -72 208 -68T176 -55Q187 -17 197 24T220 112H331Q327 86 322 58T312 2Q299 -68 244 -71ZM317 561Q326 599 335 638T353 717Q370 786 425 786Q442 786 460 781T491
767Q476 721 460 670T428 561H317Z" />
<glyph unicode="&#xa3;" horiz-adv-x="622" d="M443 -30Q409 -30 376 -24T302 -4T208 31Q178 2 153 -10T99 -22Q67 -22 47 -1T26 52Q26 99 63 129T158 160Q186 160 223 150T300 126T378 102T443 91L564 152Q578 127 583 109T589 74Q589 45 570 21T518 -16T443
-30ZM137 75L174 471Q186 595 249 648T419 701Q514 701 566 674T619 592Q619 575 614 556T598 518Q557 541 490 553T345 565L258 74L137 75ZM126 293Q93 293 81 302T69 334Q69 345 73 358T86 385Q106 379 133 377T184 375Q240 375 297 385T412 395Q444 395 455
386T467 355Q467 343 464 330T451 304Q433 309 406 311T357 313Q318 313 280 308T203 298T126 293Z" />
<glyph unicode="&#xa4;" horiz-adv-x="666" d="M316 132Q223 132 171 182T119 312Q119 380 154 431T251 510T395 539Q478 539 523 489T568 359Q568 314 550 274T498 201T418 151T316 132ZM123 20Q109 20 93 27T64 44T41 67Q74 109 110 156T184 258L275 201Q254
169 233 136T189 66Q173 43 158 32T123 20ZM464 20Q430 20 406 66Q389 102 373 135T340 201L452 239Q479 190 504 148T553 67Q543 55 528 45T495 27T464 20ZM319 223Q360 223 386 245T426 301T439 374Q439 394 432 411T406 438T348 448Q339 448 329 448T308 445Q277
414 262 378T247 310Q247 274 265 249T319 223ZM236 430Q215 467 199 495T166 550T132 605Q142 616 157 626T190 644T221 651Q257 651 279 606Q291 583 299 565T316 529T335 490L236 430ZM510 432L406 470Q427 503 449 536T493 606Q523 651 558 651Q573 651 588
644T618 627T640 605Q611 568 578 525T510 432Z" />
<glyph unicode="&#xa5;" horiz-adv-x="642" d="M321 217Q259 217 232 253T199 375Q194 440 187 496T161 597T107 670Q149 700 200 700Q244 700 271 672T313 593T335 475T348 329H354Q383 359 408 396T454 472T485 544T496 604Q496 640 473 670Q500 685 525 692T571
700Q605 700 623 682T642 631Q642 584 621 528T564 417T487 317T401 245T321 217ZM133 173Q101 173 90 182T78 214Q78 225 81 238T94 265Q113 259 141 257T191 255Q213 255 237 257T284 263L275 187Q241 183 205 178T133 173ZM296 -25Q256 -25 238 -5T219 59Q219
84 224 117T242 199T273 318H425Q402 235 388 177T373 72Q373 51 377 36T391 6Q365 -10 343 -17T296 -25ZM156 316Q124 316 113 325T101 357Q101 368 104 381T117 409Q136 403 164 401T215 399Q236 399 257 401T301 405L292 329Q258 325 225 321T156 316ZM569 184Q551
189 524 191T475 193Q449 193 423 191T369 187L378 263Q416 268 454 272T530 276Q563 276 574 266T586 235Q586 224 583 211T569 184ZM592 327Q573 332 546 334T497 336Q477 336 456 336T414 333L433 408Q463 413 493 416T553 419Q586 419 597 409T609 378Q609
367 605 354T592 327Z" />
<glyph unicode="&#xa6;" horiz-adv-x="459" d="M195 465L263 764L247 848Q271 863 300 871T355 880Q388 880 402 866T416 817L336 465H195ZM124 -180Q91 -180 77 -166T63 -117L143 236H284L216 -64L232 -148Q207 -162 178 -171T124 -180Z" />
<glyph unicode="&#xa7;" horiz-adv-x="713" d="M444 90L358 173Q413 188 444 214T476 277Q476 306 451 325T386 360T301 392T216 433T151 493T125 584Q125 631 148 669T212 736T308 780T428 795Q506 795 561 780T644 737T673 670Q673 647 662 625T630 587Q600
645 550 677T435 709Q369 709 324 685T279 610Q279 580 304 560T370 524T454 491T539 450T604 388T630 294Q630 245 607 205T542 136T444 90ZM289 -187Q211 -187 156 -172T73 -129T44 -62Q44 -39 56 -17T88 21Q119 -37 168 -69T282 -101Q348 -101 393 -77T439 -2Q439
28 414 48T348 84T263 117T178 158T113 220T87 314Q87 360 106 397T163 463T249 510L353 434Q301 419 271 393T241 331Q241 302 266 283T331 248T416 216T501 176T566 116T592 24Q592 -23 569 -61T505 -128T409 -172T289 -187Z" />
<glyph unicode="&#xa8;" horiz-adv-x="600" d="M474 676Q441 676 420 694T399 741Q399 766 412 785T447 815T495 826Q526 826 546 809T566 762Q566 725 539 701T474 676ZM199 676Q167 676 148 694T128 741Q128 766 141 785T175 815T220 826Q253 826 274 809T295
762Q295 738 283 718T248 687T199 676Z" />
<glyph unicode="&#xa9;" horiz-adv-x="896" d="M424 150Q359 150 299 171T190 235T113 342T85 493Q85 614 141 704T299 845T537 896Q584 896 607 888T639 862T650 818Q733 773 772 700T811 546Q811 448 778 374T688 250T564 175T424 150ZM423 213Q501 213 562
241T667 316T733 423T756 543Q756 590 739 638T688 726T602 790T480 815Q389 815 315 779T198 672T154 494Q154 398 191 336T290 243T423 213ZM437 321Q365 321 325 361T284 475Q284 527 301 572T351 650T425 701T516 719Q558 719 582 705T606 666Q606 645 591
632T553 619Q530 619 510 629T478 666Q445 653 420 625T381 557T366 471Q366 421 385 393T438 364Q464 364 485 377T518 413T532 465Q556 465 569 456T583 425Q583 396 563 373T510 335T437 321Z" />
<glyph unicode="&#xaa;" horiz-adv-x="554" d="M205 333Q148 333 113 377T78 493Q78 575 116 637T217 735T356 770Q386 770 413 764Q417 755 419 742T421 712Q350 712 302 686T230 617T206 521Q206 483 222 462T266 441Q320 441 352 507T400 712Q433 753 483 753Q531
753 531 702Q531 683 524 651T508 580T492 500T485 421Q485 403 490 388T505 364Q485 349 465 341T424 333Q390 333 372 352T354 407Q354 414 355 421T357 436L350 439Q327 389 289 361T205 333Z" />
<glyph unicode="&#xab;" horiz-adv-x="645" d="M478 25Q452 57 424 95T370 170T330 238T314 288Q314 312 327 336T368 390T441 457T549 549Q563 549 578 543T604 523T615 488Q615 466 598 444T550 399T483 352T406 300Q455 251 488 216T538 152T555 93Q555 73
546 58T520 34T478 25ZM212 25Q186 57 158 95T104 170T64 238T48 288Q48 312 61 336T101 390T174 457T283 549Q297 549 312 543T337 523T348 488Q348 466 331 444T284 399T217 352T141 300Q189 251 222 216T272 152T289 93Q289 73 280 58T254 34T212 25Z" />
<glyph unicode="&#xac;" horiz-adv-x="713" d="M479 86Q454 86 447 101T446 157L490 438L612 393L568 107Q540 97 518 92T479 86ZM200 308Q159 308 144 318T129 352Q129 368 134 390T150 437H540Q581 437 596 428T612 393L591 308H200Z" />
<glyph unicode="&#xad;" horiz-adv-x="512" d="M117 216Q93 216 79 228T64 274Q64 311 85 353Q98 350 109 349T133 348Q169 348 203 354T269 370T333 387T400 394Q423 394 438 382T453 337Q453 320 448 300T432 258Q419 261 408 262T385 263Q348 263 315 256T249
240T184 223T117 216Z" />
<glyph unicode="&#xae;" horiz-adv-x="896" d="M424 150Q359 150 299 171T190 235T113 342T85 493Q85 614 141 704T299 845T537 896Q584 896 607 888T639 862T650 818Q733 773 772 700T811 546Q811 448 778 374T688 250T564 175T424 150ZM423 213Q501 213 562
241T667 316T733 423T756 543Q756 590 739 638T688 726T602 790T480 815Q389 815 315 779T198 672T154 494Q154 398 191 336T290 243T423 213ZM449 463Q421 463 401 469T359 492L367 529Q379 519 394 516T424 512Q456 512 479 523T516 554T529 600Q529 617 522
632T500 657T458 667Q438 667 418 658T377 632V664Q393 680 409 692T447 711T498 718Q535 718 560 703T598 662T612 607Q612 581 602 556T572 509T522 476T449 463ZM340 320Q316 320 305 332T294 372Q294 386 296 406T302 458T314 536T333 651L313 692Q334 705
353 712T390 719Q419 719 419 684Q419 678 416 659T408 611T397 551T386 488T378 431T375 390Q375 371 378 359T389 337Q365 320 340 320ZM566 321Q547 321 534 328T509 355T481 410L451 482L522 511Q538 470 555 436T589 378T619 342Q614 336 605 332T585 324T566
321Z" />
<glyph unicode="&#xaf;" horiz-adv-x="600" d="M148 698Q102 698 102 746Q102 764 109 788T127 832Q138 827 157 824T193 820Q238 820 284 824T380 828Q452 828 452 773Q452 757 449 742T438 710Q430 713 410 715T371 718Q318 718 259 708T148 698Z" />
<glyph unicode="&#xb0;" horiz-adv-x="490" d="M262 258Q177 258 127 307T76 441Q76 510 108 562T199 643T332 672Q345 672 360 670T385 663Q388 660 389 653T392 636Q441 625 466 588T491 489Q491 425 461 372T379 289T262 258ZM267 338Q296 338 319 357T355
409T369 484Q369 574 287 574Q277 574 268 573T248 567Q225 543 212 505T199 432Q199 390 217 364T267 338Z" />
<glyph unicode="&#xb1;" horiz-adv-x="714" d="M312 131Q288 131 281 146T280 202L342 593Q398 614 431 614Q456 614 462 599T463 543L401 152Q374 142 352 137T312 131ZM201 308Q160 308 145 318T130 352Q130 368 135 390T151 437H541Q582 437 597 428T613 393Q613
360 592 308H201ZM128 -146Q87 -146 72 -136T57 -102Q57 -86 62 -64T78 -17H468Q509 -17 524 -26T540 -61Q540 -94 519 -146H128Z" />
<glyph unicode="&#xb2;" horiz-adv-x="466" d="M198 347L106 372Q180 406 223 438T286 502T306 560Q306 589 291 606T245 624Q215 624 192 603T161 537Q131 540 115 556T98 598Q98 649 146 679T272 710Q318 710 352 693T407 647T427 582Q427 540 405 503T332 429T198
347ZM120 272Q95 272 78 289T61 331Q61 364 87 386T156 408Q173 408 198 401T250 385T303 368T347 361L438 410Q446 392 449 378T453 349Q453 317 423 295T347 272Q309 272 274 282T197 306Q157 272 120 272Z" />
<glyph unicode="&#xb3;" horiz-adv-x="420" d="M186 272Q126 272 92 289T57 336Q57 358 71 372T109 387Q131 387 151 371T187 327Q230 327 256 345T282 394Q282 425 254 443T180 462V504Q228 504 258 523T289 573Q289 599 273 613T225 628Q195 628 173 607T144
548Q117 551 102 566T87 605Q87 652 130 681T243 710Q312 710 353 681T394 599Q394 562 371 533T306 488Q347 475 368 451T390 394Q390 358 364 331T292 288T186 272Z" />
<glyph unicode="&#xb4;" horiz-adv-x="600" d="M126 666Q110 666 99 680T83 723Q130 740 165 762T228 807T282 844T336 859Q393 859 393 790Q393 774 391 759T384 731Q339 731 300 721T229 699T171 676T126 666Z" />
<glyph unicode="&#xb5;" horiz-adv-x="749" d="M131 -200Q92 -200 73 -177T54 -104Q54 -85 61 -30T80 106T108 286T144 489L96 548Q126 572 164 586T233 600Q267 600 281 587T295 540Q295 522 288 483T270 396T248 298T230 209T223 148Q223 64 309 64Q363 64 410
103T485 211L484 57L443 78Q431 50 404 29T342 -3T269 -8T200 26Q189 -51 196 -97T221 -166Q204 -181 180 -190T131 -200ZM536 -25Q493 -25 473 0T453 79Q453 104 461 154T486 285T530 481L484 548Q508 565 532 576T579 594T623 600Q656 600 670 586T684 539Q684
531 678 504T662 436T642 349T621 251T605 156T599 73Q599 27 620 9Q582 -25 536 -25Z" />
<glyph unicode="&#xb6;" horiz-adv-x="615" d="M373 -96Q321 -96 300 -64T278 17Q278 57 290 108T323 216T370 328T423 437H403Q369 378 326 349T231 320Q181 320 148 342T98 402T81 483Q81 527 97 571T147 652T231 711T348 734Q379 734 416 726T486 696T540 635T562
535Q562 491 547 431T511 300T475 154T459 5Q459 -16 465 -33T483 -61Q455 -79 426 -87T373 -96Z" />
<glyph unicode="&#xb7;" horiz-adv-x="333" d="M140 208Q105 208 82 231T58 288Q58 314 70 336T104 371T154 385Q190 385 213 362T236 305Q236 280 223 258T189 222T140 208Z" />
<glyph unicode="&#xb8;" horiz-adv-x="600" d="M156 -287Q97 -287 62 -264T27 -203Q27 -179 44 -159T91 -128T156 -116Q135 -127 124 -145T112 -185Q112 -207 124 -218T160 -230Q193 -230 214 -209T236 -156Q236 -78 156 -39Q239 -39 288 -70T337 -157Q337 -193
313 -222T248 -269T156 -287Z" />
<glyph unicode="&#xb9;" horiz-adv-x="363" d="M210 272Q173 272 155 290T136 347Q136 367 140 397T149 461T161 525T172 576Q157 576 141 586T112 615T98 662Q147 670 178 681T233 701T280 710Q322 710 322 663Q322 644 314 610T296 534T278 448T270 366Q270
345 273 327T283 293Q245 272 210 272Z" />
<glyph unicode="&#xba;" horiz-adv-x="510" d="M269 333Q183 333 132 383T81 520Q81 593 114 649T205 738T337 770Q352 770 364 769T390 764Q394 754 396 742T398 714Q342 713 300 688T233 618T209 514Q209 459 230 430T292 400Q343 400 375 442T408 551Q408 591
397 621T364 677Q375 694 393 703T430 712Q469 712 491 679T513 593Q513 518 484 460T399 367T269 333Z" />
<glyph unicode="&#xbb;" horiz-adv-x="661" d="M184 560Q210 528 238 490T292 415T332 347T348 297Q348 273 335 249T294 195T221 128T113 36Q99 36 84 42T58 62T47 97Q47 119 64 141T112 186T179 233T256 285Q207 334 174 369T124 433T107 492Q107 512 116 527T142
551T184 560ZM450 560Q476 528 504 490T558 415T598 347T614 297Q614 273 601 249T561 195T488 128T379 36Q365 36 350 42T325 62T314 97Q314 119 331 141T378 186T445 233T521 285Q473 334 440 369T390 433T373 492Q373 512 382 527T408 551T450 560Z" />
<glyph unicode="&#xbc;" horiz-adv-x="1043" d="M210 272Q173 272 155 290T136 347Q136 367 140 397T149 461T161 525T172 576Q157 576 141 586T112 615T98 662Q147 670 178 681T233 701T280 710Q322 710 322 663Q322 644 314 610T296 534T278 448T270 366Q270
345 273 327T283 293Q245 272 210 272ZM326 -40Q309 -40 292 -35T263 -21Q311 69 366 179T483 425T613 727Q641 796 697 796Q714 796 731 791T760 777Q689 648 603 463T410 29Q381 -40 326 -40ZM703 35Q647 35 617 53T587 104Q587 121 601 146T636 199T677 258T711
318T725 373Q725 388 719 401Q734 407 752 411T784 415Q854 415 854 338Q854 293 812 236T684 112H884L868 56Q836 48 789 42T703 35ZM894 -23Q860 -23 842 -1T824 59Q824 83 833 121T859 201T893 280Q907 290 929 297T971 305Q990 305 996 301T1003 284Q1003 269
992 233T969 150T958 56Q958 41 961 27T969 -2Q948 -13 931 -18T894 -23Z" />
<glyph unicode="&#xbd;" horiz-adv-x="1096" d="M210 272Q173 272 155 290T136 347Q136 367 140 397T149 461T161 525T172 576Q157 576 141 586T112 615T98 662Q147 670 178 681T233 701T280 710Q322 710 322 663Q322 644 314 610T296 534T278 448T270 366Q270
345 273 327T283 293Q245 272 210 272ZM326 -40Q309 -40 292 -35T263 -21Q311 69 366 179T483 425T613 727Q641 796 697 796Q714 796 731 791T760 777Q689 648 603 463T410 29Q381 -40 326 -40ZM761 52L669 77Q742 111 786 143T849 207T868 265Q868 294 853 311T808
329Q778 329 754 308T724 242Q694 245 678 261T661 303Q661 354 709 384T835 415Q881 415 915 398T970 352T990 287Q990 244 968 208T895 134T761 52ZM683 -23Q658 -23 641 -6T624 36Q624 69 650 91T719 113Q736 113 761 106T813 90T866 73T910 66L1000 115Q1009
97 1012 83T1016 54Q1016 22 986 0T910 -23Q871 -23 837 -13T760 11Q720 -23 683 -23Z" />
<glyph unicode="&#xbe;" horiz-adv-x="1100" d="M186 272Q126 272 92 289T57 336Q57 358 71 372T109 387Q131 387 151 371T187 327Q230 327 256 345T282 394Q282 425 254 443T180 462V504Q228 504 258 523T289 573Q289 599 273 613T225 628Q195 628 173 607T144
548Q117 551 102 566T87 605Q87 652 130 681T243 710Q312 710 353 681T394 599Q394 562 371 533T306 488Q347 475 368 451T390 394Q390 358 364 331T292 288T186 272ZM383 -40Q366 -40 349 -35T320 -21Q368 69 423 179T540 425T670 727Q698 796 754 796Q771 796
788 791T817 777Q746 648 660 463T467 29Q438 -40 383 -40ZM760 35Q704 35 674 53T644 104Q644 121 658 146T693 199T734 258T768 318T782 373Q782 388 776 401Q791 407 809 411T841 415Q911 415 911 338Q911 293 869 236T741 112H941L925 56Q893 48 846 42T760
35ZM951 -23Q917 -23 899 -1T881 59Q881 83 890 121T916 201T950 280Q964 290 986 297T1028 305Q1047 305 1053 301T1060 284Q1060 269 1049 233T1026 150T1015 56Q1015 41 1018 27T1026 -2Q1005 -13 988 -18T951 -23Z" />
<glyph unicode="&#xbf;" horiz-adv-x="596" d="M239 327Q279 327 301 305T324 248Q282 244 246 228T181 185T138 123T122 45Q122 -5 149 -38T230 -72Q262 -72 294 -57T351 -8T388 80Q415 80 432 69T457 40T465 0Q465 -27 452 -61T408 -127T328 -179T207 -200Q117
-200 64 -166T-13 -79T-37 33Q-37 97 -14 151T49 245T138 305T239 327ZM317 600Q352 600 375 577T399 520Q399 494 387 472T352 437T303 423Q267 423 244 446T221 503Q221 528 233 550T268 586T317 600Z" />
<glyph unicode="&#xc0;" horiz-adv-x="716" d="M105 -26Q37 -26 37 62Q37 99 52 151T99 273T180 432T297 632L265 687Q303 710 334 720T403 730Q449 730 463 708Q494 730 525 730Q563 730 581 706T599 627Q599 576 598 518T597 398T601 277T611 166T632 72T667
6Q627 -26 576 -26Q539 -26 515 -8T475 53T454 165T447 340Q447 435 447 505T450 621H438Q354 494 299 393T216 216T188 95Q188 40 204 6Q184 -9 159 -17T105 -26ZM154 179L172 265H518L502 179H154ZM568 801Q549 801 524 811T466 833T394 856T310 866Q306 879
304 894T301 926Q301 994 358 994Q386 994 411 980T465 943T529 899T611 859Q607 831 596 816T568 801Z" />
<glyph unicode="&#xc1;" horiz-adv-x="716" d="M105 -26Q37 -26 37 62Q37 99 52 151T99 273T180 432T297 632L265 687Q303 710 334 720T403 730Q449 730 463 708Q494 730 525 730Q563 730 581 706T599 627Q599 576 598 518T597 398T601 277T611 166T632 72T667
6Q627 -26 576 -26Q539 -26 515 -8T475 53T454 165T447 340Q447 435 447 505T450 621H438Q354 494 299 393T216 216T188 95Q188 40 204 6Q184 -9 159 -17T105 -26ZM154 179L172 265H518L502 179H154ZM376 801Q360 801 349 815T333 858Q380 875 415 897T478 942T532
979T586 994Q643 994 643 925Q643 909 641 894T634 866Q589 866 550 856T479 834T421 811T376 801Z" />
<glyph unicode="&#xc2;" horiz-adv-x="716" d="M105 -26Q37 -26 37 62Q37 99 52 151T99 273T180 432T297 632L265 687Q303 710 334 720T403 730Q449 730 463 708Q494 730 525 730Q563 730 581 706T599 627Q599 576 598 518T597 398T601 277T611 166T632 72T667
6Q627 -26 576 -26Q539 -26 515 -8T475 53T454 165T447 340Q447 435 447 505T450 621H438Q354 494 299 393T216 216T188 95Q188 40 204 6Q184 -9 159 -17T105 -26ZM154 179L172 265H518L502 179H154ZM367 799Q341 799 329 808T317 831Q317 856 333 886T374 945T421
994Q441 1007 467 1015T530 1023Q565 1023 590 1009T615 963L618 883Q619 858 627 843T648 818Q630 809 612 804T572 799Q543 799 525 812T507 861Q507 889 510 917T519 969H503Q485 952 472 928T453 875T447 817Q436 810 415 805T367 799Z" />
<glyph unicode="&#xc3;" horiz-adv-x="716" d="M105 -26Q37 -26 37 62Q37 99 52 151T99 273T180 432T297 632L265 687Q303 710 334 720T403 730Q449 730 463 708Q494 730 525 730Q563 730 581 706T599 627Q599 576 598 518T597 398T601 277T611 166T632 72T667
6Q627 -26 576 -26Q539 -26 515 -8T475 53T454 165T447 340Q447 435 447 505T450 621H438Q354 494 299 393T216 216T188 95Q188 40 204 6Q184 -9 159 -17T105 -26ZM154 179L172 265H518L502 179H154ZM343 819Q313 819 300 831T286 872Q286 890 292 912T308 956Q325
949 342 945T377 941Q422 941 459 953T531 978T597 991Q628 991 641 979T654 938Q654 920 648 898T632 853Q616 860 599 864T563 868Q519 868 481 856T409 832T343 819Z" />
<glyph unicode="&#xc4;" horiz-adv-x="716" d="M105 -26Q37 -26 37 62Q37 99 52 151T99 273T180 432T297 632L265 687Q303 710 334 720T403 730Q449 730 463 708Q494 730 525 730Q563 730 581 706T599 627Q599 576 598 518T597 398T601 277T611 166T632 72T667
6Q627 -26 576 -26Q539 -26 515 -8T475 53T454 165T447 340Q447 435 447 505T450 621H438Q354 494 299 393T216 216T188 95Q188 40 204 6Q184 -9 159 -17T105 -26ZM154 179L172 265H518L502 179H154ZM602 811Q569 811 548 829T527 876Q527 901 540 920T575 950T623
961Q654 961 674 944T694 897Q694 860 667 836T602 811ZM327 811Q295 811 276 829T256 876Q256 901 269 920T303 950T348 961Q381 961 402 944T423 897Q423 873 411 853T376 822T327 811Z" />
<glyph unicode="&#xc5;" horiz-adv-x="716" d="M105 -26Q37 -26 37 62Q37 99 52 151T99 273T180 432T297 632L265 687Q303 710 334 720T403 730Q449 730 463 708Q494 730 525 730Q563 730 581 706T599 627Q599 576 598 518T597 398T601 277T611 166T632 72T667
6Q627 -26 576 -26Q539 -26 515 -8T475 53T454 165T447 340Q447 435 447 505T450 621H438Q354 494 299 393T216 216T188 95Q188 40 204 6Q184 -9 159 -17T105 -26ZM154 179L172 265H518L502 179H154ZM463 769Q395 769 355 805T316 902Q317 953 340 992T404 1052T498
1074Q566 1074 606 1039T645 941Q645 891 622 852T558 791T463 769ZM470 834Q503 834 524 864T546 942Q546 1011 492 1011Q481 1011 473 1010T450 1005Q433 986 424 960T415 906Q415 874 430 854T470 834Z" />
<glyph unicode="&#xc6;" horiz-adv-x="893" d="M103 -29Q69 -29 53 -7T37 54Q37 91 53 144T104 268T191 429T315 632L284 687Q322 708 353 717T422 726Q451 726 470 715T499 681L469 621H457Q366 493 306 390T217 211T187 86Q187 62 190 42T205 3Q182 -14 155
-21T103 -29ZM149 179L166 265H492L477 179H149ZM712 -25Q652 -25 595 -11T491 32L514 94H733Q766 98 795 105T854 124Q859 109 861 98T863 73Q863 24 826 0T712 -25ZM478 -26Q433 -26 413 -3T392 71Q392 99 395 139T408 241T432 395T469 621L427 675Q466 699 503
712T572 726Q626 726 626 660Q626 650 622 620T611 546T595 450T577 345T560 245T549 161T544 105Q544 74 554 53T586 14Q535 -26 478 -26ZM655 271Q631 271 605 275T543 288L558 371Q585 367 613 365T671 363L749 382Q750 375 750 367T751 351Q751 313 727 292T655
271ZM767 555Q732 555 695 559T623 572T554 593L575 676Q641 676 693 682T795 697T905 720Q909 706 910 694T911 671Q911 632 892 606T840 568T767 555Z" />
<glyph unicode="&#xc7;" horiz-adv-x="678" d="M336 -25Q201 -25 124 51T47 265Q47 365 80 449T173 595T313 691T485 726Q564 726 609 700T655 627Q655 589 626 564T554 538Q512 538 474 558T412 627Q352 602 304 548T229 420T202 259Q202 164 238 110T338 56Q388
56 426 81T488 150T514 248Q560 248 586 230T612 171Q612 117 575 73T475 2T336 -25ZM236 -45Q177 -45 142 -22T107 39Q107 63 124 83T171 114T236 126Q215 115 204 97T192 57Q192 35 204 24T240 12Q273 12 294 33T316 86Q316 164 236 203Q319 203 368 172T417
85Q417 49 393 20T328 -27T236 -45Z" />
<glyph unicode="&#xc8;" horiz-adv-x="595" d="M180 -26Q135 -26 114 -3T93 71Q93 98 96 136T108 234T131 382T166 599L128 675Q168 699 205 712T274 726Q328 726 328 660Q328 650 324 620T312 546T296 450T278 345T262 245T250 161T245 105Q245 74 255 53T288
14Q236 -26 180 -26ZM414 -25Q354 -25 297 -11T192 32L215 94H435Q468 98 497 105T555 124Q561 109 563 98T565 73Q565 24 528 0T414 -25ZM357 271Q332 271 306 275T244 288L260 371Q287 367 314 365T372 363L451 382Q452 375 452 367T453 351Q453 313 428 292T357
271ZM468 555Q433 555 397 559T325 572T256 593L276 676Q343 676 395 682T497 697T607 720Q611 706 612 694T613 671Q613 632 594 606T542 568T468 555ZM509 801Q490 801 465 811T407 833T335 856T251 866Q247 879 245 894T242 926Q242 994 299 994Q327 994 352
980T406 943T470 899T552 859Q548 831 537 816T509 801Z" />
<glyph unicode="&#xc9;" horiz-adv-x="595" d="M180 -26Q135 -26 114 -3T93 71Q93 98 96 136T108 234T131 382T166 599L128 675Q168 699 205 712T274 726Q328 726 328 660Q328 650 324 620T312 546T296 450T278 345T262 245T250 161T245 105Q245 74 255 53T288
14Q236 -26 180 -26ZM414 -25Q354 -25 297 -11T192 32L215 94H435Q468 98 497 105T555 124Q561 109 563 98T565 73Q565 24 528 0T414 -25ZM357 271Q332 271 306 275T244 288L260 371Q287 367 314 365T372 363L451 382Q452 375 452 367T453 351Q453 313 428 292T357
271ZM468 555Q433 555 397 559T325 572T256 593L276 676Q343 676 395 682T497 697T607 720Q611 706 612 694T613 671Q613 632 594 606T542 568T468 555ZM318 801Q302 801 291 815T275 858Q322 875 357 897T420 942T474 979T528 994Q585 994 585 925Q585 909 583
894T576 866Q531 866 492 856T421 834T363 811T318 801Z" />
<glyph unicode="&#xca;" horiz-adv-x="595" d="M180 -26Q135 -26 114 -3T93 71Q93 98 96 136T108 234T131 382T166 599L128 675Q168 699 205 712T274 726Q328 726 328 660Q328 650 324 620T312 546T296 450T278 345T262 245T250 161T245 105Q245 74 255 53T288
14Q236 -26 180 -26ZM414 -25Q354 -25 297 -11T192 32L215 94H435Q468 98 497 105T555 124Q561 109 563 98T565 73Q565 24 528 0T414 -25ZM357 271Q332 271 306 275T244 288L260 371Q287 367 314 365T372 363L451 382Q452 375 452 367T453 351Q453 313 428 292T357
271ZM468 555Q433 555 397 559T325 572T256 593L276 676Q343 676 395 682T497 697T607 720Q611 706 612 694T613 671Q613 632 594 606T542 568T468 555ZM309 799Q283 799 271 808T259 831Q259 856 275 886T316 945T363 994Q383 1007 409 1015T472 1023Q507 1023
532 1009T557 963L560 883Q561 858 569 843T590 818Q572 809 554 804T514 799Q485 799 467 812T449 861Q449 889 452 917T461 969H445Q427 952 414 928T395 875T389 817Q378 810 357 805T309 799Z" />
<glyph unicode="&#xcb;" horiz-adv-x="595" d="M180 -26Q135 -26 114 -3T93 71Q93 98 96 136T108 234T131 382T166 599L128 675Q168 699 205 712T274 726Q328 726 328 660Q328 650 324 620T312 546T296 450T278 345T262 245T250 161T245 105Q245 74 255 53T288
14Q236 -26 180 -26ZM414 -25Q354 -25 297 -11T192 32L215 94H435Q468 98 497 105T555 124Q561 109 563 98T565 73Q565 24 528 0T414 -25ZM357 271Q332 271 306 275T244 288L260 371Q287 367 314 365T372 363L451 382Q452 375 452 367T453 351Q453 313 428 292T357
271ZM468 555Q433 555 397 559T325 572T256 593L276 676Q343 676 395 682T497 697T607 720Q611 706 612 694T613 671Q613 632 594 606T542 568T468 555ZM543 811Q510 811 489 829T468 876Q468 901 481 920T516 950T564 961Q595 961 615 944T635 897Q635 860 608
836T543 811ZM268 811Q236 811 217 829T197 876Q197 901 210 920T244 950T289 961Q322 961 343 944T364 897Q364 873 352 853T317 822T268 811Z" />
<glyph unicode="&#xcc;" horiz-adv-x="375" d="M180 -25Q135 -25 114 -2T93 72Q93 99 96 137T108 234T131 383T166 599L128 675Q168 699 205 712T274 726Q328 726 328 660Q328 650 324 620T312 546T296 451T278 346T262 246T250 162T245 106Q245 72 251 48T271
7Q227 -25 180 -25ZM371 801Q352 801 327 811T269 833T197 856T113 866Q109 879 107 894T104 926Q104 994 161 994Q189 994 214 980T268 943T332 899T414 859Q410 831 399 816T371 801Z" />
<glyph unicode="&#xcd;" horiz-adv-x="375" d="M180 -25Q135 -25 114 -2T93 72Q93 99 96 137T108 234T131 383T166 599L128 675Q168 699 205 712T274 726Q328 726 328 660Q328 650 324 620T312 546T296 451T278 346T262 246T250 162T245 106Q245 72 251 48T271
7Q227 -25 180 -25ZM180 801Q164 801 153 815T137 858Q184 875 219 897T282 942T336 979T390 994Q447 994 447 925Q447 909 445 894T438 866Q393 866 354 856T283 834T225 811T180 801Z" />
<glyph unicode="&#xce;" horiz-adv-x="375" d="M180 -25Q135 -25 114 -2T93 72Q93 99 96 137T108 234T131 383T166 599L128 675Q168 699 205 712T274 726Q328 726 328 660Q328 650 324 620T312 546T296 451T278 346T262 246T250 162T245 106Q245 72 251 48T271
7Q227 -25 180 -25ZM171 799Q145 799 133 808T121 831Q121 856 137 886T178 945T225 994Q245 1007 271 1015T334 1023Q369 1023 394 1009T419 963L422 883Q423 858 431 843T452 818Q434 809 416 804T376 799Q347 799 329 812T311 861Q311 889 314 917T323 969H307Q289
952 276 928T257 875T251 817Q240 810 219 805T171 799Z" />
<glyph unicode="&#xcf;" horiz-adv-x="375" d="M180 -25Q135 -25 114 -2T93 72Q93 99 96 137T108 234T131 383T166 599L128 675Q168 699 205 712T274 726Q328 726 328 660Q328 650 324 620T312 546T296 451T278 346T262 246T250 162T245 106Q245 72 251 48T271
7Q227 -25 180 -25ZM405 811Q372 811 351 829T330 876Q330 901 343 920T378 950T426 961Q457 961 477 944T497 897Q497 860 470 836T405 811ZM130 811Q98 811 79 829T59 876Q59 901 72 920T106 950T151 961Q184 961 205 944T226 897Q226 873 214 853T179 822T130
811Z" />
<glyph unicode="&#xd0;" horiz-adv-x="837" d="M328 -25Q213 -25 153 9T93 111Q93 135 97 172T109 267T131 406T165 599L127 675Q168 699 205 712T271 726Q326 726 326 660Q326 650 322 618T310 539T295 438T277 327T261 222T249 134T245 77Q269 68 293 65T344
61Q425 61 486 102T582 217T617 385Q617 504 568 567T425 631Q387 631 360 624T307 602T250 568L237 628Q276 658 310 679T386 713T483 726Q571 726 636 687T737 578T773 411Q773 314 741 235T649 97T508 7T328 -25ZM67 291Q31 291 18 303T5 342Q5 356 9 372T23
407Q44 400 75 397T132 393Q195 393 258 406T385 419Q422 419 434 407T447 368Q447 354 443 338T429 304Q408 311 378 314T323 317Q281 317 239 311T153 298T67 291Z" />
<glyph unicode="&#xd1;" horiz-adv-x="850" d="M655 -26Q618 -26 589 -18T536 13T489 79T442 190T390 356T327 589H274L273 726Q310 726 338 714T391 669T441 572T496 407T566 155L653 154L655 -26ZM180 -26Q135 -26 114 -3T93 71Q93 98 96 136T108 233T131 382T166
599L128 675Q168 699 205 712T274 726Q328 726 328 660Q328 650 324 620T312 546T296 450T278 345T262 245T250 161T245 105Q245 71 251 47T271 6Q227 -26 180 -26ZM655 -26Q609 -26 589 -3T568 72Q568 99 571 137T582 234T605 382T642 600L605 675Q644 700 681
713T749 726Q803 726 803 661Q803 651 799 621T787 546T771 450T753 346T737 245T725 161T720 105Q720 71 726 48T746 5Q723 -11 701 -18T655 -26ZM383 819Q353 819 340 831T326 872Q326 890 332 912T348 956Q365 949 382 945T417 941Q462 941 499 953T571 978T637
991Q668 991 681 979T694 938Q694 920 688 898T672 853Q656 860 639 864T603 868Q559 868 521 856T449 832T383 819Z" />
<glyph unicode="&#xd2;" horiz-adv-x="753" d="M339 -25Q251 -25 185 13T83 120T47 282Q47 384 77 465T161 605T284 694T429 725Q485 725 510 708T535 654Q535 642 534 632T526 609Q515 612 498 614T467 617Q392 617 332 575T238 457T203 284Q203 170 249 113T372
56Q412 56 452 75T527 129T587 213T620 324Q553 354 528 399T503 495Q503 529 517 556T555 599T610 615Q667 615 698 567T729 436Q729 338 700 254T619 108T495 10T339 -25ZM586 801Q567 801 542 811T484 833T412 856T328 866Q324 879 322 894T319 926Q319 994
376 994Q404 994 429 980T483 943T547 899T629 859Q625 831 614 816T586 801Z" />
<glyph unicode="&#xd3;" horiz-adv-x="753" d="M339 -25Q251 -25 185 13T83 120T47 282Q47 384 77 465T161 605T284 694T429 725Q485 725 510 708T535 654Q535 642 534 632T526 609Q515 612 498 614T467 617Q392 617 332 575T238 457T203 284Q203 170 249 113T372
56Q412 56 452 75T527 129T587 213T620 324Q553 354 528 399T503 495Q503 529 517 556T555 599T610 615Q667 615 698 567T729 436Q729 338 700 254T619 108T495 10T339 -25ZM395 801Q379 801 368 815T352 858Q399 875 434 897T497 942T551 979T605 994Q662 994
662 925Q662 909 660 894T653 866Q608 866 569 856T498 834T440 811T395 801Z" />
<glyph unicode="&#xd4;" horiz-adv-x="753" d="M339 -25Q251 -25 185 13T83 120T47 282Q47 384 77 465T161 605T284 694T429 725Q485 725 510 708T535 654Q535 642 534 632T526 609Q515 612 498 614T467 617Q392 617 332 575T238 457T203 284Q203 170 249 113T372
56Q412 56 452 75T527 129T587 213T620 324Q553 354 528 399T503 495Q503 529 517 556T555 599T610 615Q667 615 698 567T729 436Q729 338 700 254T619 108T495 10T339 -25ZM386 799Q360 799 348 808T336 831Q336 856 352 886T393 945T440 994Q460 1007 486 1015T549
1023Q584 1023 609 1009T634 963L637 883Q638 858 646 843T667 818Q649 809 631 804T591 799Q562 799 544 812T526 861Q526 889 529 917T538 969H522Q504 952 491 928T472 875T466 817Q455 810 434 805T386 799Z" />
<glyph unicode="&#xd5;" horiz-adv-x="753" d="M339 -25Q251 -25 185 13T83 120T47 282Q47 384 77 465T161 605T284 694T429 725Q485 725 510 708T535 654Q535 642 534 632T526 609Q515 612 498 614T467 617Q392 617 332 575T238 457T203 284Q203 170 249 113T372
56Q412 56 452 75T527 129T587 213T620 324Q553 354 528 399T503 495Q503 529 517 556T555 599T610 615Q667 615 698 567T729 436Q729 338 700 254T619 108T495 10T339 -25ZM361 819Q331 819 318 831T304 872Q304 890 310 912T326 956Q343 949 360 945T395 941Q440
941 477 953T549 978T615 991Q646 991 659 979T672 938Q672 920 666 898T650 853Q634 860 617 864T581 868Q537 868 499 856T427 832T361 819Z" />
<glyph unicode="&#xd6;" horiz-adv-x="753" d="M339 -25Q251 -25 185 13T83 120T47 282Q47 384 77 465T161 605T284 694T429 725Q485 725 510 708T535 654Q535 642 534 632T526 609Q515 612 498 614T467 617Q392 617 332 575T238 457T203 284Q203 170 249 113T372
56Q412 56 452 75T527 129T587 213T620 324Q553 354 528 399T503 495Q503 529 517 556T555 599T610 615Q667 615 698 567T729 436Q729 338 700 254T619 108T495 10T339 -25ZM620 811Q587 811 566 829T545 876Q545 901 558 920T593 950T641 961Q672 961 692 944T712
897Q712 860 685 836T620 811ZM345 811Q313 811 294 829T274 876Q274 901 287 920T321 950T366 961Q399 961 420 944T441 897Q441 873 429 853T394 822T345 811Z" />
<glyph unicode="&#xd7;" horiz-adv-x="675" d="M193 143Q172 151 152 162T119 187T106 214Q106 225 115 239T147 273L510 601Q532 593 551 581T583 556T596 530Q596 519 587 505T555 471L193 143ZM460 143L180 478Q168 493 162 503T155 523Q155 539 168 552T202
578T242 601L522 266Q534 250 540 240T547 220Q547 205 534 191T500 166T460 143Z" />
<glyph unicode="&#xd8;" horiz-adv-x="753" d="M339 -25Q251 -25 185 13T83 120T47 282Q47 384 77 465T161 605T284 694T429 725Q485 725 510 708T535 654Q535 642 534 632T526 609Q515 612 498 614T467 617Q392 617 332 575T238 457T203 284Q203 170 249 113T372
56Q412 56 452 75T527 129T587 213T620 324Q553 354 528 399T503 495Q503 529 517 556T555 599T610 615Q667 615 698 567T729 436Q729 338 700 254T619 108T495 10T339 -25ZM309 -103Q291 -103 273 -98T242 -84Q290 60 344 264T460 744Q475 813 531 813Q549 813
567 808T598 794Q550 651 496 446T380 -34Q365 -103 309 -103Z" />
<glyph unicode="&#xd9;" horiz-adv-x="815" d="M617 -26Q587 -26 569 -12T542 28T533 85Q533 110 537 136T548 188H541Q511 130 467 82T367 5T247 -24Q205 -24 176 -10T128 28T102 83T93 149Q93 172 96 204T107 286T128 412T163 599L126 675Q167 701 203 713T270
726Q325 726 325 660Q325 651 319 618T304 537T284 436T264 333T249 243T243 185Q243 138 259 112T322 85Q360 85 403 114T487 197T554 321Q550 342 547 372T543 438Q543 477 548 518T565 596T596 662T642 709T706 726Q724 726 742 721T778 705Q763 652 747 578T716
420T692 255T683 108Q683 40 705 6Q683 -10 662 -18T617 -26ZM589 801Q570 801 545 811T487 833T415 856T331 866Q327 879 325 894T322 926Q322 994 379 994Q407 994 432 980T486 943T550 899T632 859Q628 831 617 816T589 801Z" />
<glyph unicode="&#xda;" horiz-adv-x="815" d="M617 -26Q587 -26 569 -12T542 28T533 85Q533 110 537 136T548 188H541Q511 130 467 82T367 5T247 -24Q205 -24 176 -10T128 28T102 83T93 149Q93 172 96 204T107 286T128 412T163 599L126 675Q167 701 203 713T270
726Q325 726 325 660Q325 651 319 618T304 537T284 436T264 333T249 243T243 185Q243 138 259 112T322 85Q360 85 403 114T487 197T554 321Q550 342 547 372T543 438Q543 477 548 518T565 596T596 662T642 709T706 726Q724 726 742 721T778 705Q763 652 747 578T716
420T692 255T683 108Q683 40 705 6Q683 -10 662 -18T617 -26ZM398 801Q382 801 371 815T355 858Q402 875 437 897T500 942T554 979T608 994Q665 994 665 925Q665 909 663 894T656 866Q611 866 572 856T501 834T443 811T398 801Z" />
<glyph unicode="&#xdb;" horiz-adv-x="815" d="M617 -26Q587 -26 569 -12T542 28T533 85Q533 110 537 136T548 188H541Q511 130 467 82T367 5T247 -24Q205 -24 176 -10T128 28T102 83T93 149Q93 172 96 204T107 286T128 412T163 599L126 675Q167 701 203 713T270
726Q325 726 325 660Q325 651 319 618T304 537T284 436T264 333T249 243T243 185Q243 138 259 112T322 85Q360 85 403 114T487 197T554 321Q550 342 547 372T543 438Q543 477 548 518T565 596T596 662T642 709T706 726Q724 726 742 721T778 705Q763 652 747 578T716
420T692 255T683 108Q683 40 705 6Q683 -10 662 -18T617 -26ZM388 799Q362 799 350 808T338 831Q338 856 354 886T395 945T442 994Q462 1007 488 1015T551 1023Q586 1023 611 1009T636 963L639 883Q640 858 648 843T669 818Q651 809 633 804T593 799Q564 799 546
812T528 861Q528 889 531 917T540 969H524Q506 952 493 928T474 875T468 817Q457 810 436 805T388 799Z" />
<glyph unicode="&#xdc;" horiz-adv-x="815" d="M617 -26Q587 -26 569 -12T542 28T533 85Q533 110 537 136T548 188H541Q511 130 467 82T367 5T247 -24Q205 -24 176 -10T128 28T102 83T93 149Q93 172 96 204T107 286T128 412T163 599L126 675Q167 701 203 713T270
726Q325 726 325 660Q325 651 319 618T304 537T284 436T264 333T249 243T243 185Q243 138 259 112T322 85Q360 85 403 114T487 197T554 321Q550 342 547 372T543 438Q543 477 548 518T565 596T596 662T642 709T706 726Q724 726 742 721T778 705Q763 652 747 578T716
420T692 255T683 108Q683 40 705 6Q683 -10 662 -18T617 -26ZM623 811Q590 811 569 829T548 876Q548 901 561 920T596 950T644 961Q675 961 695 944T715 897Q715 860 688 836T623 811ZM348 811Q316 811 297 829T277 876Q277 901 290 920T324 950T369 961Q402 961
423 944T444 897Q444 873 432 853T397 822T348 811Z" />
<glyph unicode="&#xdd;" horiz-adv-x="808" d="M99 -242Q19 -242 -19 -213T-57 -137Q-57 -117 -48 -97T-27 -63Q-15 -79 3 -94T50 -119T122 -129Q161 -129 212 -112T318 -57T426 38T520 176T588 360T613 594Q613 623 608 647T590 694Q620 712 645 719T693 726Q727
726 745 702T764 635Q764 559 749 475T704 306T632 141T533 -8T410 -130T265 -212T99 -242ZM385 -30Q319 -30 278 -6T214 61T181 157T169 273T166 395T160 514T140 617T94 694Q137 726 184 726Q236 726 264 697T304 617T318 506T320 378T322 250T339 138T383 59T468
29L385 -30ZM388 801Q372 801 361 815T345 858Q392 875 427 897T490 942T544 979T598 994Q655 994 655 925Q655 909 653 894T646 866Q601 866 562 856T491 834T433 811T388 801Z" />
<glyph unicode="&#xde;" horiz-adv-x="700" d="M384 111Q329 111 287 125T205 166L230 235Q253 218 281 211T338 203Q399 203 443 227T511 295T536 392Q536 430 523 462T481 515T401 535Q364 535 327 518T248 469V529Q279 558 310 580T381 616T477 630Q547 630
595 599T667 516T692 406Q692 351 674 298T618 203T522 136T384 111ZM180 -26Q135 -26 114 -3T93 71Q93 98 96 136T108 233T131 382T166 599L128 675Q168 699 205 712T274 726Q328 726 328 660Q328 650 324 620T312 546T296 450T278 345T262 245T250 161T245 105Q245
71 251 47T271 6Q227 -26 180 -26Z" />
<glyph unicode="&#xdf;" horiz-adv-x="705" d="M150 -210Q111 -210 92 -187T72 -117Q72 -94 82 -20T113 176T160 458Q184 591 258 658T455 725Q522 725 571 706T648 650T676 566Q676 507 638 458T527 375Q572 364 606 337T659 271T679 188Q679 88 611 32T422 -25Q350
-25 310 -2T269 62Q269 84 281 104T317 138Q326 101 353 79T416 56Q453 56 481 74T526 124T542 196Q542 251 515 294T440 362Q473 379 498 407T536 469T550 537Q550 586 524 616T454 646Q413 646 384 626T335 561T301 442Q278 318 262 226T236 67T222 -41T217 -103Q217
-155 241 -176Q223 -192 199 -201T150 -210ZM118 316Q72 316 53 327T34 367Q34 401 53 431Q70 426 93 423T142 419Q167 419 185 421T228 428L244 333Q229 329 207 325T162 319T118 316Z" />
<glyph unicode="&#xe0;" horiz-adv-x="747" d="M249 -25Q194 -25 153 4T88 86T65 210Q65 294 94 365T176 489T299 571T454 600Q498 600 543 592Q549 581 552 566T555 534Q476 534 413 511T304 445T235 346T211 224Q211 162 236 128T309 93Q396 93 451 202T533
534Q549 554 571 564T618 575Q646 575 661 561T677 520Q677 489 666 440T641 331T615 205T604 73Q604 29 626 9Q606 -8 584 -16T540 -25Q501 -25 480 -2T459 66Q459 78 460 91T465 119L455 124Q421 53 367 14T249 -25ZM537 666Q518 666 493 676T435 698T363 721T279
731Q275 744 273 759T270 791Q270 859 327 859Q355 859 380 845T434 808T498 764T580 724Q576 696 565 681T537 666Z" />
<glyph unicode="&#xe1;" horiz-adv-x="747" d="M249 -25Q194 -25 153 4T88 86T65 210Q65 294 94 365T176 489T299 571T454 600Q498 600 543 592Q549 581 552 566T555 534Q476 534 413 511T304 445T235 346T211 224Q211 162 236 128T309 93Q396 93 451 202T533
534Q549 554 571 564T618 575Q646 575 661 561T677 520Q677 489 666 440T641 331T615 205T604 73Q604 29 626 9Q606 -8 584 -16T540 -25Q501 -25 480 -2T459 66Q459 78 460 91T465 119L455 124Q421 53 367 14T249 -25ZM346 666Q330 666 319 680T303 723Q350 740
385 762T448 807T502 844T556 859Q613 859 613 790Q613 774 611 759T604 731Q559 731 520 721T449 699T391 676T346 666Z" />
<glyph unicode="&#xe2;" horiz-adv-x="747" d="M249 -25Q194 -25 153 4T88 86T65 210Q65 294 94 365T176 489T299 571T454 600Q498 600 543 592Q549 581 552 566T555 534Q476 534 413 511T304 445T235 346T211 224Q211 162 236 128T309 93Q396 93 451 202T533
534Q549 554 571 564T618 575Q646 575 661 561T677 520Q677 489 666 440T641 331T615 205T604 73Q604 29 626 9Q606 -8 584 -16T540 -25Q501 -25 480 -2T459 66Q459 78 460 91T465 119L455 124Q421 53 367 14T249 -25ZM337 664Q311 664 299 673T287 696Q287 721
303 751T344 810T391 859Q411 872 437 880T500 888Q535 888 560 874T585 828L588 748Q589 723 597 708T618 683Q600 674 582 669T542 664Q513 664 495 677T477 726Q477 754 480 782T489 834H473Q455 817 442 793T423 740T417 682Q406 675 385 670T337 664Z" />
<glyph unicode="&#xe3;" horiz-adv-x="747" d="M249 -25Q194 -25 153 4T88 86T65 210Q65 294 94 365T176 489T299 571T454 600Q498 600 543 592Q549 581 552 566T555 534Q476 534 413 511T304 445T235 346T211 224Q211 162 236 128T309 93Q396 93 451 202T533
534Q549 554 571 564T618 575Q646 575 661 561T677 520Q677 489 666 440T641 331T615 205T604 73Q604 29 626 9Q606 -8 584 -16T540 -25Q501 -25 480 -2T459 66Q459 78 460 91T465 119L455 124Q421 53 367 14T249 -25ZM312 684Q282 684 269 696T255 737Q255 755
261 777T277 821Q294 814 311 810T346 806Q391 806 428 818T500 843T566 856Q597 856 610 844T623 803Q623 785 617 763T601 718Q585 725 568 729T532 733Q488 733 450 721T378 697T312 684Z" />
<glyph unicode="&#xe4;" horiz-adv-x="747" d="M249 -25Q194 -25 153 4T88 86T65 210Q65 294 94 365T176 489T299 571T454 600Q498 600 543 592Q549 581 552 566T555 534Q476 534 413 511T304 445T235 346T211 224Q211 162 236 128T309 93Q396 93 451 202T533
534Q549 554 571 564T618 575Q646 575 661 561T677 520Q677 489 666 440T641 331T615 205T604 73Q604 29 626 9Q606 -8 584 -16T540 -25Q501 -25 480 -2T459 66Q459 78 460 91T465 119L455 124Q421 53 367 14T249 -25ZM571 676Q538 676 517 694T496 741Q496 766
509 785T544 815T592 826Q623 826 643 809T663 762Q663 725 636 701T571 676ZM296 676Q264 676 245 694T225 741Q225 766 238 785T272 815T317 826Q350 826 371 809T392 762Q392 738 380 718T345 687T296 676Z" />
<glyph unicode="&#xe5;" horiz-adv-x="747" d="M249 -25Q194 -25 153 4T88 86T65 210Q65 294 94 365T176 489T299 571T454 600Q498 600 543 592Q549 581 552 566T555 534Q476 534 413 511T304 445T235 346T211 224Q211 162 236 128T309 93Q396 93 451 202T533
534Q549 554 571 564T618 575Q646 575 661 561T677 520Q677 489 666 440T641 331T615 205T604 73Q604 29 626 9Q606 -8 584 -16T540 -25Q501 -25 480 -2T459 66Q459 78 460 91T465 119L455 124Q421 53 367 14T249 -25ZM433 634Q365 634 325 670T286 767Q287 818
310 857T374 917T468 939Q536 939 576 904T615 806Q615 756 592 717T528 656T433 634ZM440 699Q473 699 494 729T516 807Q516 876 462 876Q451 876 443 875T420 870Q403 851 394 825T385 771Q385 739 400 719T440 699Z" />
<glyph unicode="&#xe6;" horiz-adv-x="1036" d="M249 -25Q194 -25 153 4T88 86T65 210Q65 288 94 355T176 471T299 547T454 575Q504 575 543 567Q549 555 552 541T555 509Q478 509 415 488T306 429T236 338T211 224Q211 162 236 128T309 93Q342 93 375 112T436
167T483 254L464 124H456Q423 53 368 14T249 -25ZM688 -25Q576 -25 513 40T450 221Q450 303 477 372T555 492T673 571T822 600Q904 600 950 563T997 456Q997 385 947 335T801 258T570 232L583 293Q719 295 794 336T869 452Q869 483 850 502T799 521Q758 521 722
497T657 431T613 334T596 216Q596 140 624 97T701 53Q762 53 800 93T843 199Q887 199 911 183T936 131Q936 90 904 55T815 -3T688 -25Z" />
<glyph unicode="&#xe7;" horiz-adv-x="625" d="M316 -25Q201 -25 135 40T68 222Q68 304 96 373T174 492T291 571T436 600Q506 600 547 576T588 511Q588 477 563 455T499 432Q462 432 430 450T378 510Q331 490 294 447T236 345T214 218Q214 141 242 97T320 53Q360
53 391 74T442 130T463 210Q508 210 532 193T557 141Q557 96 525 58T438 -2T316 -25ZM233 -45Q174 -45 139 -22T104 39Q104 63 121 83T168 114T233 126Q212 115 201 97T189 57Q189 35 201 24T237 12Q270 12 291 33T313 86Q313 164 233 203Q316 203 365 172T414
85Q414 49 390 20T325 -27T233 -45Z" />
<glyph unicode="&#xe8;" horiz-adv-x="653" d="M305 -25Q194 -25 131 40T67 221Q67 303 95 372T173 492T291 571T439 600Q522 600 568 563T615 456Q615 385 565 335T419 258T188 232L200 293Q336 295 411 336T486 452Q486 483 468 502T417 521Q376 521 340 497T275
431T230 334T214 216Q214 140 242 97T319 53Q380 53 418 93T460 199Q505 199 529 183T554 131Q554 90 521 55T432 -3T305 -25ZM527 666Q508 666 483 676T425 698T353 721T269 731Q265 744 263 759T260 791Q260 859 317 859Q345 859 370 845T424 808T488 764T570
724Q566 696 555 681T527 666Z" />
<glyph unicode="&#xe9;" horiz-adv-x="653" d="M305 -25Q194 -25 131 40T67 221Q67 303 95 372T173 492T291 571T439 600Q522 600 568 563T615 456Q615 385 565 335T419 258T188 232L200 293Q336 295 411 336T486 452Q486 483 468 502T417 521Q376 521 340 497T275
431T230 334T214 216Q214 140 242 97T319 53Q380 53 418 93T460 199Q505 199 529 183T554 131Q554 90 521 55T432 -3T305 -25ZM336 666Q320 666 309 680T293 723Q340 740 375 762T438 807T492 844T546 859Q603 859 603 790Q603 774 601 759T594 731Q549 731 510
721T439 699T381 676T336 666Z" />
<glyph unicode="&#xea;" horiz-adv-x="653" d="M305 -25Q194 -25 131 40T67 221Q67 303 95 372T173 492T291 571T439 600Q522 600 568 563T615 456Q615 385 565 335T419 258T188 232L200 293Q336 295 411 336T486 452Q486 483 468 502T417 521Q376 521 340 497T275
431T230 334T214 216Q214 140 242 97T319 53Q380 53 418 93T460 199Q505 199 529 183T554 131Q554 90 521 55T432 -3T305 -25ZM327 664Q301 664 289 673T277 696Q277 721 293 751T334 810T381 859Q401 872 427 880T490 888Q525 888 550 874T575 828L578 748Q579
723 587 708T608 683Q590 674 572 669T532 664Q503 664 485 677T467 726Q467 754 470 782T479 834H463Q445 817 432 793T413 740T407 682Q396 675 375 670T327 664Z" />
<glyph unicode="&#xeb;" horiz-adv-x="653" d="M305 -25Q194 -25 131 40T67 221Q67 303 95 372T173 492T291 571T439 600Q522 600 568 563T615 456Q615 385 565 335T419 258T188 232L200 293Q336 295 411 336T486 452Q486 483 468 502T417 521Q376 521 340 497T275
431T230 334T214 216Q214 140 242 97T319 53Q380 53 418 93T460 199Q505 199 529 183T554 131Q554 90 521 55T432 -3T305 -25ZM561 676Q528 676 507 694T486 741Q486 766 499 785T534 815T582 826Q613 826 633 809T653 762Q653 725 626 701T561 676ZM286 676Q254
676 235 694T215 741Q215 766 228 785T262 815T307 826Q340 826 361 809T382 762Q382 738 370 718T335 687T286 676Z" />
<glyph unicode="&#xec;" horiz-adv-x="388" d="M175 -25Q132 -25 112 -4T91 62Q91 83 96 119T111 209T136 331T171 488L123 548Q154 572 192 586T262 600Q295 600 309 586T323 539Q323 531 317 504T301 436T280 349T259 251T243 156T237 73Q237 51 242 35T259
9Q219 -25 175 -25ZM357 666Q338 666 313 676T255 698T183 721T99 731Q95 744 93 759T90 791Q90 859 147 859Q175 859 200 845T254 808T318 764T400 724Q396 696 385 681T357 666Z" />
<glyph unicode="&#xed;" horiz-adv-x="388" d="M175 -25Q132 -25 112 -4T91 62Q91 83 96 119T111 209T136 331T171 488L123 548Q154 572 192 586T262 600Q295 600 309 586T323 539Q323 531 317 504T301 436T280 349T259 251T243 156T237 73Q237 51 242 35T259
9Q219 -25 175 -25ZM166 666Q150 666 139 680T123 723Q170 740 205 762T268 807T322 844T376 859Q433 859 433 790Q433 774 431 759T424 731Q379 731 340 721T269 699T211 676T166 666Z" />
<glyph unicode="&#xee;" horiz-adv-x="388" d="M175 -25Q132 -25 112 -4T91 62Q91 83 96 119T111 209T136 331T171 488L123 548Q154 572 192 586T262 600Q295 600 309 586T323 539Q323 531 317 504T301 436T280 349T259 251T243 156T237 73Q237 51 242 35T259
9Q219 -25 175 -25ZM157 664Q131 664 119 673T107 696Q107 721 123 751T164 810T211 859Q231 872 257 880T320 888Q355 888 380 874T405 828L408 748Q409 723 417 708T438 683Q420 674 402 669T362 664Q333 664 315 677T297 726Q297 754 300 782T309 834H293Q275
817 262 793T243 740T237 682Q226 675 205 670T157 664Z" />
<glyph unicode="&#xef;" horiz-adv-x="388" d="M175 -25Q132 -25 112 -4T91 62Q91 83 96 119T111 209T136 331T171 488L123 548Q154 572 192 586T262 600Q295 600 309 586T323 539Q323 531 317 504T301 436T280 349T259 251T243 156T237 73Q237 51 242 35T259
9Q219 -25 175 -25ZM647 676Q614 676 593 694T572 741Q572 766 585 785T620 815T668 826Q699 826 719 809T739 762Q739 725 712 701T647 676ZM372 676Q340 676 321 694T301 741Q301 766 314 785T348 815T393 826Q426 826 447 809T468 762Q468 738 456 718T421 687T372
676Z" />
<glyph unicode="&#xf0;" horiz-adv-x="708" d="M323 -25Q247 -25 190 7T102 100T70 239Q70 319 96 385T169 499T281 573T422 600Q469 600 496 592Q509 569 508 534Q421 534 356 497T254 392T217 233Q217 147 251 100T347 53Q403 53 444 84T509 170T532 299Q532
394 506 473T434 612T327 705T196 738Q196 777 221 802T288 827Q345 827 399 802T499 731T580 624T634 493T654 347Q654 237 612 153T496 22T323 -25ZM602 685Q583 678 561 672T516 662T477 658L460 752Q486 755 503 759T545 773Q564 780 585 791T624 815Q639 803
648 790T663 761Q672 736 660 719T602 685Z" />
<glyph unicode="&#xf1;" horiz-adv-x="758" d="M172 -25Q129 -25 109 -4T89 62Q89 84 95 130T114 238T140 364T169 489L122 548Q151 570 188 584T258 598Q292 598 306 584T320 537Q320 511 312 480T292 422L302 417Q355 510 421 555T567 600Q631 600 662 569T693
471Q693 426 683 378T660 279T636 176T626 73Q626 29 642 9Q605 -25 564 -25Q521 -25 501 -4T481 62Q481 103 490 152T512 252T534 346T543 424Q543 459 530 476T491 493Q453 493 417 470T348 408T290 315T250 200T235 73Q235 29 249 9Q212 -25 172 -25ZM347 684Q317
684 304 696T290 737Q290 755 296 777T312 821Q329 814 346 810T381 806Q426 806 463 818T535 843T601 856Q632 856 645 844T658 803Q658 785 652 763T636 718Q620 725 603 729T567 733Q523 733 485 721T413 697T347 684Z" />
<glyph unicode="&#xf2;" horiz-adv-x="723" d="M320 -25Q244 -25 188 7T101 99T70 238Q70 318 96 384T171 499T284 573T429 600Q449 600 467 599T504 592Q511 580 513 566T516 534Q421 534 354 494T252 387T217 233Q217 145 248 99T338 53Q391 53 433 82T502 166T537
293Q497 317 479 348T460 422Q460 453 472 477T506 514T554 528Q604 528 633 486T662 370Q662 287 636 216T563 90T454 6T320 -25ZM523 666Q504 666 479 676T421 698T349 721T265 731Q261 744 259 759T256 791Q256 859 313 859Q341 859 366 845T420 808T484 764T566
724Q562 696 551 681T523 666Z" />
<glyph unicode="&#xf3;" horiz-adv-x="723" d="M320 -25Q244 -25 188 7T101 99T70 238Q70 318 96 384T171 499T284 573T429 600Q449 600 467 599T504 592Q511 580 513 566T516 534Q421 534 354 494T252 387T217 233Q217 145 248 99T338 53Q391 53 433 82T502 166T537
293Q497 317 479 348T460 422Q460 453 472 477T506 514T554 528Q604 528 633 486T662 370Q662 287 636 216T563 90T454 6T320 -25ZM331 666Q315 666 304 680T288 723Q335 740 370 762T433 807T487 844T541 859Q598 859 598 790Q598 774 596 759T589 731Q544 731
505 721T434 699T376 676T331 666Z" />
<glyph unicode="&#xf4;" horiz-adv-x="723" d="M320 -25Q244 -25 188 7T101 99T70 238Q70 318 96 384T171 499T284 573T429 600Q449 600 467 599T504 592Q511 580 513 566T516 534Q421 534 354 494T252 387T217 233Q217 145 248 99T338 53Q391 53 433 82T502 166T537
293Q497 317 479 348T460 422Q460 453 472 477T506 514T554 528Q604 528 633 486T662 370Q662 287 636 216T563 90T454 6T320 -25ZM322 664Q296 664 284 673T272 696Q272 721 288 751T329 810T376 859Q396 872 422 880T485 888Q520 888 545 874T570 828L573 748Q574
723 582 708T603 683Q585 674 567 669T527 664Q498 664 480 677T462 726Q462 754 465 782T474 834H458Q440 817 427 793T408 740T402 682Q391 675 370 670T322 664Z" />
<glyph unicode="&#xf5;" horiz-adv-x="723" d="M320 -25Q244 -25 188 7T101 99T70 238Q70 318 96 384T171 499T284 573T429 600Q449 600 467 599T504 592Q511 580 513 566T516 534Q421 534 354 494T252 387T217 233Q217 145 248 99T338 53Q391 53 433 82T502 166T537
293Q497 317 479 348T460 422Q460 453 472 477T506 514T554 528Q604 528 633 486T662 370Q662 287 636 216T563 90T454 6T320 -25ZM298 684Q268 684 255 696T241 737Q241 755 247 777T263 821Q280 814 297 810T332 806Q377 806 414 818T486 843T552 856Q583 856
596 844T609 803Q609 785 603 763T587 718Q571 725 554 729T518 733Q474 733 436 721T364 697T298 684Z" />
<glyph unicode="&#xf6;" horiz-adv-x="723" d="M320 -25Q244 -25 188 7T101 99T70 238Q70 318 96 384T171 499T284 573T429 600Q449 600 467 599T504 592Q511 580 513 566T516 534Q421 534 354 494T252 387T217 233Q217 145 248 99T338 53Q391 53 433 82T502 166T537
293Q497 317 479 348T460 422Q460 453 472 477T506 514T554 528Q604 528 633 486T662 370Q662 287 636 216T563 90T454 6T320 -25ZM557 676Q524 676 503 694T482 741Q482 766 495 785T530 815T578 826Q609 826 629 809T649 762Q649 725 622 701T557 676ZM282 676Q250
676 231 694T211 741Q211 766 224 785T258 815T303 826Q336 826 357 809T378 762Q378 738 366 718T331 687T282 676Z" />
<glyph unicode="&#xf7;" horiz-adv-x="713" d="M200 308Q159 308 144 318T129 352Q129 368 134 390T150 437H540Q581 437 596 428T612 393Q612 360 591 308H200ZM404 535Q369 535 346 558T322 615Q322 641 334 663T368 698T418 712Q454 712 477 689T500 632Q500
607 487 585T453 549T404 535ZM324 33Q289 33 266 56T242 113Q242 139 254 161T288 196T338 210Q374 210 397 187T420 130Q420 105 407 83T373 47T324 33Z" />
<glyph unicode="&#xf8;" horiz-adv-x="723" d="M320 -25Q244 -25 188 7T101 99T70 238Q70 318 96 384T171 499T284 573T429 600Q449 600 467 599T504 592Q511 580 513 566T516 534Q421 534 354 494T252 387T217 233Q217 145 248 99T338 53Q391 53 433 82T502 166T537
293Q497 317 479 348T460 422Q460 453 472 477T506 514T554 528Q604 528 633 486T662 370Q662 287 636 216T563 90T454 6T320 -25ZM282 -78Q268 -78 253 -74T229 -63Q267 52 310 216T403 600Q415 655 460 655Q474 655 489 651T514 640Q475 525 432 361T339 -23Q327
-78 282 -78Z" />
<glyph unicode="&#xf9;" horiz-adv-x="749" d="M244 -25Q163 -25 124 15T85 137Q85 179 92 226T109 319T126 408T133 485Q133 509 130 530T119 566Q146 581 174 590T221 600Q254 600 269 585T284 533Q284 511 278 474T262 393T244 304T229 223T222 166Q222 115
244 90T309 64Q363 64 410 103T485 211L484 57L443 78Q421 48 389 25T319 -12T244 -25ZM536 -25Q493 -25 473 0T453 79Q453 104 461 154T486 285T530 481L484 548Q508 565 532 576T579 594T623 600Q656 600 670 586T684 539Q684 531 678 504T662 436T642 349T621
251T605 156T599 73Q599 27 620 9Q582 -25 536 -25ZM538 666Q519 666 494 676T436 698T364 721T280 731Q276 744 274 759T271 791Q271 859 328 859Q356 859 381 845T435 808T499 764T581 724Q577 696 566 681T538 666Z" />
<glyph unicode="&#xfa;" horiz-adv-x="749" d="M244 -25Q163 -25 124 15T85 137Q85 179 92 226T109 319T126 408T133 485Q133 509 130 530T119 566Q146 581 174 590T221 600Q254 600 269 585T284 533Q284 511 278 474T262 393T244 304T229 223T222 166Q222 115
244 90T309 64Q363 64 410 103T485 211L484 57L443 78Q421 48 389 25T319 -12T244 -25ZM536 -25Q493 -25 473 0T453 79Q453 104 461 154T486 285T530 481L484 548Q508 565 532 576T579 594T623 600Q656 600 670 586T684 539Q684 531 678 504T662 436T642 349T621
251T605 156T599 73Q599 27 620 9Q582 -25 536 -25ZM347 666Q331 666 320 680T304 723Q351 740 386 762T449 807T503 844T557 859Q614 859 614 790Q614 774 612 759T605 731Q560 731 521 721T450 699T392 676T347 666Z" />
<glyph unicode="&#xfb;" horiz-adv-x="749" d="M244 -25Q163 -25 124 15T85 137Q85 179 92 226T109 319T126 408T133 485Q133 509 130 530T119 566Q146 581 174 590T221 600Q254 600 269 585T284 533Q284 511 278 474T262 393T244 304T229 223T222 166Q222 115
244 90T309 64Q363 64 410 103T485 211L484 57L443 78Q421 48 389 25T319 -12T244 -25ZM536 -25Q493 -25 473 0T453 79Q453 104 461 154T486 285T530 481L484 548Q508 565 532 576T579 594T623 600Q656 600 670 586T684 539Q684 531 678 504T662 436T642 349T621
251T605 156T599 73Q599 27 620 9Q582 -25 536 -25ZM338 664Q312 664 300 673T288 696Q288 721 304 751T345 810T392 859Q412 872 438 880T501 888Q536 888 561 874T586 828L589 748Q590 723 598 708T619 683Q601 674 583 669T543 664Q514 664 496 677T478 726Q478
754 481 782T490 834H474Q456 817 443 793T424 740T418 682Q407 675 386 670T338 664Z" />
<glyph unicode="&#xfc;" horiz-adv-x="749" d="M244 -25Q163 -25 124 15T85 137Q85 179 92 226T109 319T126 408T133 485Q133 509 130 530T119 566Q146 581 174 590T221 600Q254 600 269 585T284 533Q284 511 278 474T262 393T244 304T229 223T222 166Q222 115
244 90T309 64Q363 64 410 103T485 211L484 57L443 78Q421 48 389 25T319 -12T244 -25ZM536 -25Q493 -25 473 0T453 79Q453 104 461 154T486 285T530 481L484 548Q508 565 532 576T579 594T623 600Q656 600 670 586T684 539Q684 531 678 504T662 436T642 349T621
251T605 156T599 73Q599 27 620 9Q582 -25 536 -25ZM572 676Q539 676 518 694T497 741Q497 766 510 785T545 815T593 826Q624 826 644 809T664 762Q664 725 637 701T572 676ZM297 676Q265 676 246 694T226 741Q226 766 239 785T273 815T318 826Q351 826 372 809T393
762Q393 738 381 718T346 687T297 676Z" />
<glyph unicode="&#xfd;" horiz-adv-x="681" d="M80 -200Q9 -200 -25 -175T-60 -107Q-60 -88 -51 -69T-31 -38Q-20 -52 -5 -65T35 -86T97 -95Q131 -95 174 -81T263 -36T354 44T433 160T489 316T510 514Q510 526 510 542T507 570Q529 585 549 592T589 600Q618 600
636 585T654 531Q654 461 637 380T585 217T501 60T387 -73T246 -166T80 -200ZM315 -25Q249 -25 212 0T157 70T134 168T128 281T124 395T109 496T66 570Q104 600 150 600Q195 600 220 576T255 511T268 420T270 315T271 211T285 119T321 54T392 30L315 -25ZM308 666Q292
666 281 680T265 723Q312 740 347 762T410 807T464 844T518 859Q575 859 575 790Q575 774 573 759T566 731Q521 731 482 721T411 699T353 676T308 666Z" />
<glyph unicode="&#xfe;" horiz-adv-x="752" d="M300 0Q252 0 210 8Q204 20 201 34T198 66Q301 66 378 102T499 202T543 351Q543 413 517 447T443 482Q396 482 355 437T280 306T221 100L237 476L298 440Q332 516 386 558T504 600Q560 600 601 571T665 489T688 365Q688
287 659 220T577 104T454 28T300 0ZM140 -200Q101 -200 82 -176T63 -101Q63 -83 68 -38T83 71T105 211T130 366T156 523T181 664L133 723Q163 746 200 760T270 775Q304 775 318 762T332 715Q332 673 323 617T300 494T270 356T240 208T216 57T207 -91Q207 -119 213
-136T230 -166Q212 -182 189 -191T140 -200Z" />
<glyph unicode="&#xff;" horiz-adv-x="681" d="M80 -200Q9 -200 -25 -175T-60 -107Q-60 -88 -51 -69T-31 -38Q-20 -52 -5 -65T35 -86T97 -95Q131 -95 174 -81T263 -36T354 44T433 160T489 316T510 514Q510 526 510 542T507 570Q529 585 549 592T589 600Q618 600
636 585T654 531Q654 461 637 380T585 217T501 60T387 -73T246 -166T80 -200ZM315 -25Q249 -25 212 0T157 70T134 168T128 281T124 395T109 496T66 570Q104 600 150 600Q195 600 220 576T255 511T268 420T270 315T271 211T285 119T321 54T392 30L315 -25ZM534 676Q501
676 480 694T459 741Q459 766 472 785T507 815T555 826Q586 826 606 809T626 762Q626 725 599 701T534 676ZM259 676Q227 676 208 694T188 741Q188 766 201 785T235 815T280 826Q313 826 334 809T355 762Q355 738 343 718T308 687T259 676Z" />
<glyph unicode="&#x2013;" horiz-adv-x="666" d="M120 212Q72 212 55 224T37 268Q37 288 43 312T58 362Q80 354 112 349T182 343Q220 343 264 348T356 359T453 371T547 377Q595 377 612 365T630 321Q630 301 625 278T609 226Q587 235 556 240T486 245Q448 245
404 240T311 229T215 217T120 212Z" />
<glyph unicode="&#x2014;" horiz-adv-x="840" d="M122 212Q73 212 55 224T37 270Q37 290 42 313T58 362Q85 354 127 349T218 343Q270 343 330 348T457 359T589 371T719 377Q768 377 786 365T804 319Q804 299 799 276T783 226Q757 235 715 240T623 245Q572 245
511 240T384 229T252 217T122 212Z" />
<glyph unicode="&#x2018;" horiz-adv-x="319" d="M290 768L303 732Q276 718 257 696T227 649T216 603L273 529Q271 503 257 481T220 446T169 433Q127 433 105 461T82 525Q82 583 107 631T179 714T290 768Z" />
<glyph unicode="&#x2019;" horiz-adv-x="349" d="M115 433L102 469Q129 483 148 505T178 552T189 598L132 672Q134 698 148 720T185 755T236 768Q278 768 300 740T323 676Q323 618 298 570T226 487T115 433Z" />
<glyph unicode="&#x201a;" horiz-adv-x="333" d="M50 -183L37 -147Q64 -133 83 -111T113 -64T124 -18L67 56Q69 82 83 104T120 139T171 152Q213 152 235 124T258 60Q258 2 233 -46T161 -129T50 -183Z" />
<glyph unicode="&#x201c;" horiz-adv-x="566" d="M290 768L303 732Q276 718 257 696T227 649T216 603L273 529Q271 503 257 481T220 446T169 433Q127 433 105 461T82 525Q82 583 107 631T179 714T290 768ZM537 768L550 732Q523 718 504 696T474 649T463 603L520
529Q518 503 504 481T467 446T416 433Q374 433 352 461T329 525Q329 583 354 631T426 714T537 768Z" />
<glyph unicode="&#x201d;" horiz-adv-x="596" d="M362 433L349 469Q376 483 395 505T425 552T436 598L379 672Q381 698 395 720T432 755T483 768Q525 768 547 740T570 676Q570 618 545 570T473 487T362 433ZM115 433L102 469Q129 483 148 505T178 552T189 598L132
672Q134 698 148 720T185 755T236 768Q278 768 300 740T323 676Q323 618 298 570T226 487T115 433Z" />
<glyph unicode="&#x201e;" horiz-adv-x="581" d="M50 -183L37 -147Q64 -133 83 -111T113 -64T124 -18L67 56Q69 82 83 104T120 139T171 152Q213 152 235 124T258 60Q258 2 233 -46T161 -129T50 -183ZM297 -183L284 -147Q311 -133 330 -111T360 -64T371 -18L314
56Q316 82 330 104T367 139T418 152Q460 152 482 124T505 60Q505 2 480 -46T408 -129T297 -183Z" />
<glyph unicode="&#x2022;" horiz-adv-x="388" d="M161 208Q119 208 91 236T63 304Q63 335 78 361T119 404T178 420Q221 420 249 393T277 324Q277 294 261 268T220 225T161 208Z" />
<glyph unicode="&#x2039;" horiz-adv-x="380" d="M212 25Q186 57 158 95T104 170T64 238T48 288Q48 312 61 336T101 390T174 457T283 549Q297 549 312 543T337 523T348 488Q348 466 331 444T284 399T217 352T141 300Q189 251 222 216T272 152T289 93Q289 73 280
58T254 34T212 25Z" />
<glyph unicode="&#x203a;" horiz-adv-x="380" d="M167 549Q193 517 221 479T275 404T315 336T331 286Q331 262 318 238T278 184T205 117T96 25Q82 25 67 31T42 51T31 86Q31 108 48 130T95 175T162 222T238 274Q190 323 157 358T107 422T90 481Q90 501 99 516T125
540T167 549Z" />
</font>
</defs>
</svg>
