<?xml version="1.0" standalone="no"?>
<!DOCTYPE svg PUBLIC "-//W3C//DTD SVG 1.1//EN" "http://www.w3.org/Graphics/SVG/1.1/DTD/svg11.dtd">
<svg xmlns="http://www.w3.org/2000/svg">
<defs >
<font id="Lemonada" horiz-adv-x="685" ><font-face
    font-family="Lemonada Light"
    units-per-em="1000"
    panose-1="0 0 0 0 0 0 0 0 0 0"
    ascent="1345"
    descent="-653"
    alphabetic="0" />
<glyph unicode=" " horiz-adv-x="330" />
<glyph unicode="!" horiz-adv-x="350" d="M190 242Q171 242 165 252T159 279Q159 299 165 335T179 415T196 506T210 594T216 666Q216 686 213 709T198 747Q213 761 234 768T279 775Q316 775 331 752T347 693Q347 674 339 634T318 542T290 437T260 336T234 259Q224
250 212 246T190 242ZM147 -25Q121 -25 103 -8T85 35Q85 55 94 71T119 98T157 108Q184 108 201 91T219 48Q219 29 210 13T184 -14T147 -25Z" />
<glyph unicode="&quot;" horiz-adv-x="436" d="M335 446Q312 446 305 460T297 496Q297 528 310 564T336 638T349 716Q349 739 342 759Q359 770 377 775T412 780Q433 780 440 766T448 730Q448 699 435 663T409 589T396 510Q396 487 403 467Q387 457 369 452T335
446ZM128 446Q105 446 98 460T90 496Q90 528 103 564T129 638T142 716Q142 739 135 759Q152 770 170 775T205 780Q226 780 233 766T241 730Q241 699 228 663T202 589T189 510Q189 487 196 467Q180 457 162 452T128 446Z" />
<glyph unicode="#" horiz-adv-x="836" d="M160 158Q149 158 138 161T116 171Q166 324 220 532T338 1025Q350 1074 396 1074Q407 1074 418 1071T439 1061Q390 908 336 700T218 207Q206 158 160 158ZM444 -98Q433 -98 422 -95T400 -85Q450 68 504 276T622 769Q634
818 680 818Q691 818 702 815T723 805Q674 652 620 444T502 -49Q490 -98 444 -98ZM158 173Q93 173 71 182T49 216Q49 240 70 266Q90 263 109 261T150 257T196 256Q266 256 341 262T495 275T657 281Q721 281 743 273T766 239Q766 214 746 188Q716 194 687 196T622
199Q552 199 477 193T321 180T158 173ZM206 473Q141 473 119 482T97 516Q97 540 118 566Q138 563 157 561T198 557T244 556Q314 556 389 562T543 575T705 581Q769 581 791 573T814 539Q814 514 794 488Q764 494 735 496T670 499Q600 499 525 493T369 480T206 473Z"
/>
<glyph unicode="$" horiz-adv-x="673" d="M299 -24Q236 -24 185 -11T104 30T74 96Q74 117 85 134T114 161Q141 100 190 70T294 39Q376 39 428 69T481 159Q481 194 455 217T388 258T300 293T213 335T145 395T119 487Q119 531 142 570T207 638T310 685T446 702Q500
702 542 691T610 660T635 613Q635 574 610 555T545 535Q502 535 476 562T436 639Q334 626 279 588T224 498Q224 466 250 445T317 406T404 370T491 328T558 268T584 178Q584 141 567 105T516 40T427 -7T299 -24ZM258 -195Q247 -195 236 -192T215 -183Q224 -143 235
-100T257 -9L335 -5Q329 -39 324 -73T311 -143Q302 -195 258 -195ZM380 644Q391 689 401 737T424 837Q436 886 480 886Q491 886 502 883T523 873Q507 821 490 764T455 644H380Z" />
<glyph unicode="%" horiz-adv-x="1061" d="M262 272Q183 272 137 323T90 460Q90 534 121 589T209 676T339 707Q352 707 367 705T392 698Q395 695 396 688T398 669Q441 658 462 620T484 520Q484 450 455 394T375 305T262 272ZM267 325Q304 325 333 349T379 416T396
513Q396 639 289 639Q276 639 265 637T239 630Q209 593 193 545T177 451Q177 393 202 359T267 325ZM377 -40Q366 -40 356 -37T336 -27Q387 72 442 185T560 437T695 747Q715 796 761 796Q772 796 782 793T802 783Q728 645 643 456T445 9Q422 -40 377 -40ZM789 -23Q710
-23 664 28T617 165Q617 239 648 294T736 381T866 412Q879 412 894 410T919 403Q922 400 923 393T925 374Q968 363 989 325T1011 225Q1011 155 982 99T902 10T789 -23ZM794 30Q831 30 860 54T906 121T923 218Q923 344 816 344Q803 344 792 342T766 335Q736 298
720 250T704 156Q704 98 729 64T794 30Z" />
<glyph unicode="&amp;" horiz-adv-x="762" d="M365 335Q297 335 243 360T157 428T125 527Q125 583 148 629T214 707T318 757T454 775Q526 775 572 746T619 673Q619 637 595 618T533 598Q488 598 459 629T416 713Q330 698 280 651T230 534Q230 495 249 464T302
415T379 397Q453 397 509 409T609 433T692 445Q749 445 749 406Q749 396 746 385T735 357Q708 360 692 361T662 363Q628 363 578 356T473 342T365 335ZM248 -92Q191 -92 148 -71T81 -10T57 82Q57 141 83 197T157 301T271 382L315 371Q239 308 202 247T165 128Q165
64 197 29T294 -7Q345 -7 393 19T479 93T542 210T569 363L618 369Q621 268 596 184T521 38T402 -58T248 -92Z" />
<glyph unicode="&apos;" horiz-adv-x="228" d="M128 446Q105 446 98 460T90 496Q90 528 103 564T129 638T142 716Q142 739 135 759Q152 770 170 775T205 780Q226 780 233 766T241 730Q241 699 228 663T202 589T189 510Q189 487 196 467Q180 457 162 452T128 446Z" />
<glyph unicode="(" horiz-adv-x="415" d="M240 -156Q181 -156 148 -66T115 191Q115 272 129 357T166 522T218 664T279 764T341 801Q355 801 366 798T395 781Q356 744 322 684T263 549T223 393T209 231Q209 110 234 26T312 -123Q300 -138 280 -147T240 -156Z" />
<glyph unicode=")" horiz-adv-x="415" d="M175 801Q234 801 267 711T300 454Q300 373 286 288T249 123T197 -19T136 -119T74 -156Q60 -156 49 -153T20 -136Q59 -99 93 -39T152 96T192 252T206 414Q206 535 181 619T103 768Q115 783 135 792T175 801Z" />
<glyph unicode="*" horiz-adv-x="592" d="M399 300Q384 300 365 321T331 392T309 530L220 356Q189 361 165 371T126 394T112 417Q112 434 129 457T188 509T308 566L111 599Q110 608 109 618T108 639Q108 683 118 701T142 720Q177 720 212 698T281 644T340 579L307
776Q330 787 354 793T395 800Q421 800 429 793T437 759Q437 737 433 709T412 643T363 552L538 645Q555 628 567 609T587 573T594 544Q594 531 575 520T513 509Q494 509 472 508T420 510T344 523L484 384Q471 358 455 339T424 310T399 300Z" />
<glyph unicode="+" horiz-adv-x="700" d="M313 151Q293 151 287 163T287 206L346 578Q390 594 416 594Q436 594 441 583T442 540L383 167Q361 160 344 156T313 151ZM197 321Q166 321 154 329T142 357Q142 370 146 386T158 424H531Q562 424 573 417T585 389Q585
363 569 321H197Z" />
<glyph unicode="," horiz-adv-x="334" d="M68 -172L57 -143Q79 -131 95 -112T120 -70T129 -31L83 30Q84 51 95 68T126 97T167 108Q201 108 219 85T238 33Q238 -16 217 -55T158 -123T68 -172Z" />
<glyph unicode="-" horiz-adv-x="499" d="M114 243Q95 243 82 252T69 288Q69 310 85 339Q98 337 108 336T130 335Q166 335 198 340T262 351T325 362T391 367Q410 367 423 358T436 323Q436 312 432 299T420 272Q408 274 398 275T376 276Q339 276 307 271T243 260T180
248T114 243Z" />
<glyph unicode="." horiz-adv-x="284" d="M137 -25Q111 -25 93 -8T75 35Q75 55 84 71T109 98T147 108Q174 108 191 91T209 48Q209 29 200 13T174 -14T137 -25Z" />
<glyph unicode="/" horiz-adv-x="398" d="M81 -80Q70 -80 59 -77T37 -67Q87 86 141 294T259 787Q271 836 317 836Q328 836 339 833T360 823Q311 670 257 462T139 -31Q127 -80 81 -80Z" />
<glyph unicode="0" horiz-adv-x="731" d="M337 -25Q260 -25 203 13T116 120T85 283Q85 408 133 501T266 647T463 700Q482 700 505 696T544 685Q549 680 551 668T554 637Q613 620 644 557T676 394Q676 305 650 229T578 96T470 7T337 -25ZM347 35Q411 35 460 79T539
202T568 382Q568 503 523 562T384 621Q363 621 342 617T297 604Q263 554 240 498T205 385T193 270Q193 161 235 98T347 35Z" />
<glyph unicode="1" horiz-adv-x="443" d="M218 -25Q190 -25 175 -1T160 70Q160 116 164 168T178 280T202 409T235 557Q188 557 158 572T120 616Q168 631 201 645T258 672T298 692T330 700Q363 700 363 662Q363 645 353 602T329 497T299 365T274 221T264 79Q264
54 267 32T277 -8Q245 -25 218 -25Z" />
<glyph unicode="2" horiz-adv-x="642" d="M168 42L110 83Q221 160 300 228T420 361T462 485Q462 557 430 591T336 625Q295 625 263 602T211 540T189 452Q155 457 137 476T118 527Q118 579 148 618T233 678T361 700Q424 700 471 677T544 613T571 515Q571 447 531
377T403 225T168 42ZM473 -30Q437 -30 401 -26T314 -8T187 34Q159 3 137 -9T89 -22Q66 -22 50 -7T34 30Q34 69 66 93T148 118Q177 118 219 108T308 85T398 61T473 51L573 110Q587 91 593 78T599 54Q599 30 582 11T537 -19T473 -30Z" />
<glyph unicode="3" horiz-adv-x="661" d="M196 -156Q115 -156 77 -135T38 -69Q38 -44 58 -27T110 -10Q139 -10 166 -31T211 -91Q277 -91 330 -66T416 1T448 95Q448 125 436 154T405 205T362 233Q329 210 301 198T249 185Q227 185 210 200T193 237Q193 270 221
290T294 311Q369 311 428 284T521 210T556 103Q556 46 530 -1T455 -83T340 -137T196 -156ZM389 254L318 288Q359 305 391 335T443 405T462 485Q462 556 432 590T339 625Q297 625 263 602T207 540T183 452Q149 457 131 476T112 527Q112 579 143 618T231 678T364
700Q424 700 470 676T543 610T570 514Q570 444 523 377T389 254Z" />
<glyph unicode="4" horiz-adv-x="666" d="M190 0Q115 0 82 20T49 85Q49 111 66 149T110 234T167 332T225 436T269 537T286 630Q286 642 285 654T278 685Q298 695 311 697T340 700Q408 700 408 611Q408 523 335 393T111 85H470L441 19Q409 14 366 10T276 3T190
0ZM483 -170Q448 -170 429 -146T409 -77Q409 -53 416 -13T437 83T470 206T515 354Q526 362 537 367T558 374T577 377Q590 377 596 372T602 356Q602 337 592 296T568 200T544 83T533 -41Q533 -113 557 -149Q533 -161 517 -165T483 -170Z" />
<glyph unicode="5" horiz-adv-x="618" d="M197 -155Q115 -155 78 -134T40 -66Q40 -42 62 -26T115 -9Q144 -9 170 -30T215 -89Q279 -89 331 -65T414 1T446 93Q446 130 427 168T365 232T254 259Q226 259 206 254T177 249Q168 249 163 257T157 272L219 629L313 600L266
320Q350 320 415 292T518 215T556 103Q556 47 529 0T454 -82T340 -136T197 -155ZM406 566Q279 566 222 585T165 648Q165 674 179 686T221 699Q249 699 270 680T305 633Q346 635 390 644T479 669T568 705Q576 698 579 683T583 651Q583 620 557 602T491 575T406 566Z"
/>
<glyph unicode="6" horiz-adv-x="700" d="M336 -25Q268 -25 215 5T131 97T100 250Q100 342 129 427T206 585T312 712T426 797T530 827Q556 827 572 818T601 780Q561 764 512 738T410 669T308 558T218 390H223Q270 455 319 476T416 497Q485 497 532 466T604 382T629
261Q629 200 606 148T541 57T448 -3T336 -25ZM345 39Q372 39 403 53T460 95T504 167T521 268Q521 308 508 344T462 404T372 428Q339 428 301 405T235 334T208 215Q208 172 221 132T264 65T345 39Z" />
<glyph unicode="7" horiz-adv-x="555" d="M236 -121Q204 -121 185 -100T166 -30Q166 49 198 154T287 378T420 617L532 661Q491 600 448 520T369 351T311 171T289 -6Q289 -34 291 -54T304 -98Q286 -111 269 -116T236 -121ZM340 571Q247 571 190 579T107 605T80
653Q80 670 85 686T97 711Q134 696 175 683T258 661T342 646T421 638Q436 667 458 685T506 704Q536 704 550 691T565 651Q565 608 512 590T340 571Z" />
<glyph unicode="8" horiz-adv-x="656" d="M323 -26Q212 -26 146 22T80 157Q80 185 89 213T123 271T188 330T293 390Q378 429 420 465T477 535T492 605Q492 651 461 678T373 705Q317 705 278 678T238 598Q238 558 264 526T330 465T417 408T503 347T570 276T596
184Q596 123 562 76T466 1T323 -26ZM331 52Q373 52 408 66T465 108T487 178Q487 213 461 243T394 301T308 359T221 422T154 496T128 588Q128 647 158 690T244 758T374 783Q472 783 529 735T587 605Q587 537 530 474T366 363Q312 339 269 307T200 236T175 156Q175
109 219 81T331 52Z" />
<glyph unicode="9" horiz-adv-x="679" d="M180 -152Q154 -152 138 -143T109 -105Q149 -89 198 -63T300 6T402 117T491 285H486Q440 221 391 200T293 179Q224 179 177 210T105 294T80 414Q80 476 103 528T168 618T262 678T373 700Q442 700 495 670T578 578T609
425Q609 333 580 248T503 90T398 -37T284 -122T180 -152ZM337 247Q371 247 409 270T474 341T501 460Q501 504 488 544T446 610T364 636Q337 636 306 622T249 580T205 508T188 407Q188 368 201 332T247 271T337 247Z" />
<glyph unicode=":" horiz-adv-x="333" d="M137 -25Q111 -25 93 -8T75 35Q75 55 84 71T109 98T147 108Q174 108 191 91T209 48Q209 29 200 13T174 -14T137 -25ZM192 426Q166 426 148 443T130 486Q130 506 139 522T164 549T202 559Q229 559 246 542T264 499Q264
480 255 464T229 437T192 426Z" />
<glyph unicode=";" horiz-adv-x="333" d="M68 -172L57 -143Q79 -131 95 -112T120 -70T129 -31L83 30Q84 51 95 68T126 97T167 108Q201 108 219 85T238 33Q238 -16 217 -55T158 -123T68 -172ZM192 426Q166 426 148 443T130 486Q130 506 139 522T164 549T202 559Q229
559 246 542T264 499Q264 480 255 464T229 437T192 426Z" />
<glyph unicode="&lt;" horiz-adv-x="750" d="M190 434L563 226Q582 214 593 205T604 186Q604 178 597 166T578 140T556 115L182 323Q162 335 152 343T142 363Q142 371 149 383T168 409T190 434ZM616 622Q630 622 638 610T651 577T658 533L269 356Q258 351 249
348T233 345Q214 345 204 366Q198 377 195 394T190 434L578 611Q590 616 599 619T616 622Z" />
<glyph unicode="=" horiz-adv-x="700" d="M433 452Q402 452 390 460T378 488Q378 501 382 517T394 555H767Q798 555 809 548T821 520Q821 494 805 452H433ZM217 446Q186 446 174 454T162 482Q162 495 166 511T178 549H551Q582 549 593 542T605 514Q605 488 589 446H217Z" />
<glyph unicode="&gt;" horiz-adv-x="751" d="M586 303L213 511Q194 523 183 532T172 551Q172 559 179 571T198 597T220 622L594 414Q614 402 624 394T634 374Q634 366 627 354T608 328T586 303ZM160 115Q146 115 138 127T125 160T118 204L507 381Q518 386 527
389T543 392Q562 392 572 371Q578 360 581 343T586 303L198 126Q186 121 177 118T160 115Z" />
<glyph unicode="?" horiz-adv-x="601" d="M262 235Q238 235 220 250T201 289Q242 292 282 311T355 363T407 440T427 537Q427 604 392 644T295 684Q256 684 218 665T151 606T109 506Q93 506 82 513T66 534T60 568Q60 589 71 623T111 693T188 751T313 775Q397 775
447 741T519 654T541 542Q541 475 516 419T449 321T358 258T262 235ZM199 -25Q173 -25 155 -8T137 35Q137 55 146 71T171 98T209 108Q236 108 253 91T271 48Q271 29 262 13T236 -14T199 -25Z" />
<glyph unicode="@" horiz-adv-x="1083" d="M508 -235Q373 -235 275 -182T123 -32T69 197Q69 324 113 433T236 625T421 754T650 800Q755 800 829 774T951 703T1021 601T1044 482Q1044 412 1019 343T948 216T838 125T693 90L729 151Q784 165 828 198T905 276T954
372T971 474Q971 525 954 572T898 656T798 716T645 738Q542 738 454 700T298 593T194 436T156 243Q156 62 255 -35T543 -132Q656 -132 753 -92T926 28Q933 13 936 0T939 -27Q939 -68 904 -105T809 -172T672 -218T508 -235ZM480 90Q424 90 389 133T354 248Q354 328
391 391T492 490T631 527Q665 527 699 521Q703 514 705 505T707 487Q618 487 560 457T474 375T445 257Q445 211 465 187T520 162Q588 162 631 243T694 487Q714 510 743 510Q761 510 772 502T783 476Q783 454 775 419T756 341T737 249T729 151Q729 138 732 128T743
112Q730 100 718 95T693 90Q667 90 654 105T641 150Q641 158 642 168T645 190L637 193Q609 144 568 117T480 90Z" />
<glyph unicode="A" horiz-adv-x="674" d="M98 -23Q50 -23 50 57Q50 98 70 159T128 300T224 474T355 676L325 707Q348 721 367 727T411 734Q447 734 454 715Q473 734 498 734Q522 734 534 718T546 665Q546 623 545 565T544 439T548 303T559 174T581 67T619 -1Q591
-23 554 -23Q521 -23 499 -5T465 59T448 182T443 378Q443 479 443 543T443 644H431Q333 499 272 392T182 208T153 83Q153 29 166 -1Q151 -13 136 -18T98 -23ZM136 194L149 253H495L484 194H136Z" />
<glyph unicode="B" horiz-adv-x="751" d="M391 -26Q265 -26 193 4T120 85Q120 115 124 160T137 271T162 428T199 642L173 692Q202 708 227 717T270 726Q310 726 308 677Q411 727 504 727Q584 727 630 686T677 574Q677 511 634 457T510 368Q590 353 635 307T680
190Q680 128 643 79T540 2T391 -26ZM381 38Q469 38 521 78T573 183Q573 249 528 285T400 322Q363 322 321 317T231 300L238 362Q340 367 414 393T528 463T569 563Q569 653 464 653Q424 653 384 645T301 617Q285 540 272 469T249 331T232 199T220 66Q254 53 297
46T381 38Z" />
<glyph unicode="C" horiz-adv-x="650" d="M322 -25Q200 -25 130 49T60 256Q60 356 93 441T184 591T319 690T482 726Q548 726 585 706T623 649Q623 618 598 597T534 575Q497 575 462 590T403 653Q335 624 281 565T197 425T166 247Q166 148 205 92T315 36Q370 36
410 62T473 133T501 234Q533 234 552 220T571 171Q571 118 537 74T447 2T322 -25Z" />
<glyph unicode="D" horiz-adv-x="821" d="M331 -25Q223 -25 172 1T120 85Q120 111 124 155T138 266T162 426T198 642L172 692Q202 708 227 717T267 726Q304 726 304 683Q304 677 300 646T288 566T271 459T252 339T236 222T224 123T219 55Q251 46 280 42T345 38Q434
38 502 83T608 206T647 387Q647 521 595 590T442 659Q390 659 358 651T300 627T238 592V635Q270 656 301 677T372 712T473 726Q559 726 622 687T719 576T754 404Q754 308 724 230T637 94T503 6T331 -25Z" />
<glyph unicode="E" horiz-adv-x="568" d="M178 -26Q148 -26 134 -10T120 42Q120 72 124 116T137 227T161 396T201 642L175 692Q201 708 226 717T272 726Q308 726 308 683Q308 677 304 646T291 567T274 462T256 345T238 231T226 136T221 74Q221 54 234 38T273 10Q221
-26 178 -26ZM387 -25Q325 -25 263 -9T163 34L204 60H432Q462 63 485 68T531 82Q536 67 537 60T539 44Q539 7 503 -9T387 -25ZM357 288Q326 288 295 293T222 309L235 367Q267 363 301 362T374 360L443 377Q443 372 443 367T443 358Q443 324 421 306T357 288ZM484
604Q442 604 403 607T324 618T243 640L270 682Q337 682 386 687T483 700T587 720Q591 708 591 700T592 683Q592 652 576 635T535 611T484 604Z" />
<glyph unicode="F" horiz-adv-x="508" d="M178 -26Q148 -26 134 -10T120 42Q120 72 124 116T137 227T161 396T201 642L175 692Q201 708 226 717T272 726Q308 726 308 683Q308 677 304 646T291 567T274 462T256 345T238 231T226 136T221 74Q221 49 227 29T243 -5Q207
-26 178 -26ZM357 288Q326 288 295 293T222 309L235 367Q267 363 301 362T374 360L443 377Q443 372 443 367T443 358Q443 324 421 306T357 288ZM474 604Q432 604 393 607T314 618T233 640L260 682Q327 682 376 687T473 700T577 720Q581 708 581 700T582 683Q582
652 566 635T525 611T474 604Z" />
<glyph unicode="G" horiz-adv-x="717" d="M332 -30Q205 -30 133 45T60 256Q60 356 94 441T190 591T330 690T499 726Q568 726 606 706T644 649Q644 618 618 597T552 575Q515 575 479 590T417 653Q345 624 289 565T199 425T166 247Q166 148 208 92T324 36Q390 36
439 70T516 162T549 294Q556 294 561 273T566 201Q566 139 534 86T449 2T332 -30ZM504 -185Q477 -185 463 -174T449 -134Q449 -112 456 -70T479 40L556 221L549 294L487 332Q510 354 541 365T595 377Q622 377 634 368T646 333Q646 327 636 292T612 204T582 91T557
-26T547 -128Q547 -142 550 -152T561 -167Q548 -176 535 -180T504 -185Z" />
<glyph unicode="H" horiz-adv-x="814" d="M623 -26Q593 -26 579 -10T565 42Q565 73 569 117T582 229T606 397T646 642L620 692Q646 708 671 717T717 726Q753 726 753 683Q753 677 749 646T736 567T719 462T701 345T683 231T671 136T666 74Q666 49 672 29T688 -5Q654
-26 623 -26ZM178 -26Q148 -26 134 -10T120 42Q120 73 124 117T137 229T161 397T201 642L175 692Q201 708 226 717T272 726Q308 726 308 683Q308 677 304 646T291 567T274 462T256 345T238 231T226 136T221 74Q221 49 227 29T243 -5Q209 -26 178 -26ZM191 297L204
356H640L629 297H191Z" />
<glyph unicode="I" horiz-adv-x="369" d="M178 -25Q148 -25 134 -9T120 43Q120 74 124 118T137 230T161 398T201 642L175 692Q201 708 226 717T272 726Q308 726 308 683Q308 677 304 646T291 567T274 462T256 345T238 232T226 137T221 75Q221 50 227 30T243 -4Q209
-25 178 -25Z" />
<glyph unicode="J" horiz-adv-x="523" d="M139 -25Q110 -25 82 -17T34 10T15 58Q15 78 30 96T80 114Q113 114 132 97T163 57T183 16L157 27Q196 29 224 41T273 80T307 153T330 269L381 643L483 683L424 269Q413 195 393 140T340 48T258 -7T139 -25ZM346 585Q208
585 149 605T90 673Q90 690 94 707T105 732Q146 711 193 695T289 668T378 656Q386 689 406 707T456 726Q482 726 498 712T514 670Q514 624 476 605T346 585Z" />
<glyph unicode="K" horiz-adv-x="676" d="M212 246L210 304L287 362Q365 421 417 465T501 545T545 613T558 678Q558 686 556 693T550 709Q571 725 601 725Q627 725 644 707T662 662Q662 623 637 583T557 496T412 386L212 246ZM178 -26Q148 -26 134 -10T120 42Q120
73 124 118T137 231T162 399T201 642L175 692Q204 708 229 717T272 726Q308 726 308 683Q308 677 304 646T291 567T274 462T256 345T238 231T226 136T221 74Q221 49 227 29T243 -5Q208 -26 178 -26ZM579 -25Q553 -25 535 -13T495 37T440 148L339 362L420 416Q447
349 477 284T539 163T598 65T649 2Q643 -5 631 -11T604 -21T579 -25Z" />
<glyph unicode="L" horiz-adv-x="540" d="M178 -26Q148 -26 134 -10T120 42Q120 72 123 115T136 226T161 395T201 642L175 692Q201 708 226 717T272 726Q308 726 308 683Q308 677 304 646T291 567T274 462T256 345T238 231T226 136T221 74Q221 54 234 38T273 10Q223
-26 178 -26ZM363 -25Q302 -25 245 -11T157 26L188 60H393Q423 63 446 68T492 82Q497 66 498 59T500 44Q500 7 468 -9T363 -25Z" />
<glyph unicode="M" horiz-adv-x="1024" d="M178 -26Q150 -26 135 -13T120 32Q120 61 123 101T134 208T158 380T198 642L172 692Q202 711 226 718T267 726Q302 726 325 713T365 664T399 562T438 390T495 131H506Q527 222 563 309T645 472T742 605T844 695T941 728Q945
728 950 726T959 716T963 692Q963 685 959 653T947 571T930 462T912 341T895 224T883 126T878 62Q878 40 883 24T901 -7Q867 -28 835 -28Q808 -28 794 -15T779 30Q779 59 782 99T792 201T814 359T850 594H845Q799 557 760 504T690 390T636 269T599 157T578 72Q561
57 541 49T502 41Q476 41 458 49T425 86T394 175T354 337T294 594H289Q282 539 273 476T254 350T237 229T224 129T219 64Q219 42 224 25T242 -5Q225 -16 209 -21T178 -26Z" />
<glyph unicode="N" horiz-adv-x="839" d="M648 -27Q618 -27 594 -20T548 10T503 75T453 190T389 368T305 624H263L271 726Q299 726 322 714T368 665T421 558T489 372T584 84L652 83L648 -27ZM178 -26Q148 -26 134 -10T120 42Q120 73 124 117T137 229T161 397T201
642L175 692Q201 708 226 717T272 726Q308 726 308 683Q308 677 304 646T291 567T274 462T256 345T238 231T226 136T221 74Q221 49 227 29T243 -5Q209 -26 178 -26ZM648 -27Q618 -27 604 -11T590 41Q590 72 594 116T607 229T631 397T671 642L640 692Q668 708 694
717T742 726Q778 726 778 683Q778 677 774 646T761 566T744 461T726 344T708 230T696 135T691 73Q691 49 697 29T713 -6Q695 -16 680 -21T648 -27Z" />
<glyph unicode="O" horiz-adv-x="737" d="M334 -25Q251 -25 190 12T94 118T60 280Q60 384 90 466T173 606T295 694T440 725Q485 725 508 713T531 674Q531 665 530 658T524 642Q513 645 496 647T465 650Q383 650 316 606T208 480T167 286Q167 160 218 98T355 36Q397
36 441 57T523 120T589 218T626 346Q563 373 542 414T520 501Q520 532 531 556T563 595T610 610Q657 610 683 566T710 445Q710 346 682 261T604 112T484 11T334 -25Z" />
<glyph unicode="P" horiz-adv-x="687" d="M384 205Q320 205 269 224T175 277L220 306Q246 287 279 279T345 270Q416 270 466 298T542 375T569 486Q569 531 555 569T505 632T408 656Q366 656 324 637T235 583V610Q266 642 297 668T368 709T464 724Q532 724 578
693T648 610T672 500Q672 442 655 389T603 295T513 229T384 205ZM178 -26Q148 -26 134 -10T120 42Q120 73 124 117T137 229T161 397T201 642L175 692Q201 708 226 717T272 726Q308 726 308 683Q308 677 304 646T291 567T274 462T256 345T238 231T226 136T221 74Q221
49 227 29T243 -5Q209 -26 178 -26Z" />
<glyph unicode="Q" horiz-adv-x="737" d="M536 -172Q479 -172 427 -152T331 -105T257 -58Q245 -80 221 -97T163 -115Q141 -115 125 -102T109 -62Q109 -30 133 -15T188 0Q228 0 275 -11T376 -33T491 -45Q539 -45 578 -39T652 -22Q652 -29 653 -38T654 -58Q654 -96
639 -121T597 -159T536 -172ZM334 -25Q251 -25 190 12T94 118T60 280Q60 384 90 466T173 606T295 694T440 725Q485 725 508 713T531 674Q531 665 530 658T524 642Q513 645 496 647T465 650Q383 650 316 606T208 480T167 286Q167 160 218 98T355 36Q397 36 441 57T523
120T589 218T626 346Q563 373 542 414T520 501Q520 532 531 556T563 595T610 610Q657 610 683 566T710 445Q710 346 682 261T604 112T484 11T334 -25Z" />
<glyph unicode="R" horiz-adv-x="720" d="M384 250Q326 250 282 265T190 322L220 351Q246 332 279 324T345 315Q416 315 466 339T542 406T569 501Q569 543 555 578T505 634T408 656Q366 656 324 637T235 583V610Q266 642 297 668T368 709T464 724Q532 724 578
695T648 619T672 515Q672 469 655 422T603 336T513 274T384 250ZM178 -26Q148 -26 134 -10T120 42Q120 73 124 117T137 229T161 397T201 642L175 692Q201 708 226 717T272 726Q308 726 308 683Q308 676 302 638T286 541T265 415T244 281T228 160T221 74Q221 49
227 29T243 -5Q209 -26 178 -26ZM605 -25Q579 -25 561 -13T521 37T466 148L400 286L485 322Q518 250 552 186T619 74T675 2Q669 -5 657 -11T630 -21T605 -25Z" />
<glyph unicode="S" horiz-adv-x="713" d="M321 -25Q254 -25 200 -11T113 30T80 100Q80 121 91 138T122 165Q151 101 204 70T316 39Q407 39 463 70T520 164Q520 196 499 217T442 256T365 288T281 321T204 363T148 421T126 505Q126 550 150 590T220 660T330 708T476
726Q533 726 579 715T651 683T678 636Q678 595 652 575T583 555Q537 555 509 583T467 663Q354 650 294 610T233 516Q233 487 254 467T311 430T388 399T472 365T549 323T605 265T627 184Q627 145 610 108T555 41T460 -7T321 -25Z" />
<glyph unicode="T" horiz-adv-x="530" d="M255 -26Q227 -26 212 -13T197 32Q197 69 206 147T234 354T285 675L383 656Q376 606 365 538T343 396T321 254T305 136T298 64Q298 42 303 25T320 -5Q288 -26 255 -26ZM500 611Q459 611 418 617T335 628T249 634L85 613Q81
621 79 630T77 651Q77 694 101 704T165 715Q206 715 247 709T330 698T416 691L580 713Q584 706 585 696T587 675Q587 644 564 628T500 611Z" />
<glyph unicode="U" horiz-adv-x="810" d="M619 -26Q595 -26 582 -11T565 27T560 76Q560 105 565 137T579 201L574 202Q545 146 500 95T397 11T268 -22Q223 -22 195 -6T150 35T127 89T120 145Q120 171 124 209T137 305T162 445T200 642L174 692Q194 706 221 716T269
727Q306 727 306 683Q306 676 300 642T283 556T262 447T240 332T223 232T216 167Q216 113 234 81T311 49Q354 49 407 83T509 178T591 321Q591 335 589 363T587 429Q587 461 588 500T594 580T612 653T647 706T705 727Q716 727 730 722T759 705Q745 656 729 581T697
417T672 237T662 64Q662 22 677 -5Q661 -16 647 -21T619 -26Z" />
<glyph unicode="V" horiz-adv-x="589" d="M209 -30Q163 -30 138 -9T103 66T93 214Q93 286 94 357T91 493T71 613T20 704Q49 726 85 726Q133 726 157 688T189 563T197 326Q197 232 197 180T197 104T197 72T197 59H209Q310 208 371 312T459 486T487 599Q487 631
482 656T463 704Q494 719 507 722T537 726Q560 726 574 703T589 640Q589 601 570 541T512 403T416 230T285 27L306 -1Q298 -9 282 -15T247 -26T209 -30Z" />
<glyph unicode="W" horiz-adv-x="960" d="M161 -30Q125 -30 115 4T105 86Q105 177 106 267T102 439T78 590T20 704Q51 726 89 726Q140 726 165 688T198 563T206 326Q206 232 206 180T206 104T206 72T206 59H219Q313 176 371 275T460 445T502 555T513 589Q513 599
506 614T493 642T486 661Q505 680 515 685T537 690Q566 690 584 669T603 611Q603 583 595 555T568 491T522 406T455 288Q397 184 354 121T277 25T216 -19T161 -30ZM593 -30Q554 -30 535 -11T509 41T500 108L461 661Q468 673 487 681T537 690L564 616L581 59H593Q689
208 746 312T830 486T856 599Q856 631 850 656T829 704Q860 719 873 722T905 726Q929 726 944 703T959 640Q959 601 940 541T885 403T795 230T673 27L690 -1Q682 -9 667 -15T632 -26T593 -30Z" />
<glyph unicode="X" horiz-adv-x="761" d="M619 -30Q590 -30 567 -17T520 27T469 108L244 525Q217 575 193 603T144 646T90 671Q105 697 130 712T181 727Q210 727 234 714T281 670T332 588L556 171Q583 121 607 93T655 51T708 25Q694 0 669 -15T619 -30ZM103 -30Q76
-30 61 -11T46 39Q46 59 57 82T103 141T204 233L370 368L397 316Q264 224 209 154T154 35Q154 22 157 12T164 -8Q160 -14 142 -22T103 -30ZM418 328L390 381Q524 473 578 543T633 661Q633 686 624 704Q628 710 646 718T685 726Q711 726 726 707T741 656Q741 638
730 615T686 556T585 464L418 328Z" />
<glyph unicode="Y" horiz-adv-x="781" d="M81 -242Q14 -242 -16 -218T-46 -157Q-46 -145 -42 -131T-32 -105Q-20 -117 -3 -131T42 -155T115 -165Q152 -165 203 -149T313 -96T426 0T527 143T600 341T627 599Q627 631 622 656T603 704Q634 719 647 722T677 726Q700
726 715 702T730 639Q730 553 715 464T671 289T601 124T505 -21T385 -137T243 -214T81 -242ZM409 -30Q344 -30 304 -6T241 62T209 160T196 277T192 402T186 522T165 627T118 704Q147 726 180 726Q227 726 252 696T287 615T299 500T301 369T305 237T326 122T375
41T468 11L409 -30Z" />
<glyph unicode="Z" horiz-adv-x="638" d="M206 83L117 98L435 597L555 627L206 83ZM460 -30Q425 -30 390 -26T305 -9T179 33Q151 3 130 -9T84 -22Q61 -22 46 -8T30 29Q30 67 61 91T142 114Q171 114 212 104T298 82T386 59T460 49L558 106Q572 87 577 75T583 52Q583
29 567 10T523 -19T460 -30ZM365 585Q273 585 217 594T134 622T108 673Q108 690 113 707T126 732Q164 716 207 703T294 680T381 664T463 656Q476 685 504 705T558 726Q590 726 606 714T623 676Q623 627 563 606T365 585Z" />
<glyph unicode="[" horiz-adv-x="382" d="M180 -156Q150 -156 129 -143T96 -93T84 15Q84 101 92 188T118 372T162 584Q182 671 203 718T254 782T330 800Q358 800 381 794T418 774T432 740Q432 734 432 727T430 712Q423 715 402 717T357 720T318 722Q289 650 265
554T224 349T198 131T188 -81Q203 -81 224 -80T264 -76T288 -71Q291 -79 292 -88T293 -102Q293 -127 264 -141T180 -156Z" />
<glyph unicode="\" horiz-adv-x="680" d="M457 -80Q468 -80 479 -77T501 -67Q451 86 397 294T279 787Q267 836 221 836Q210 836 199 833T178 823Q227 670 281 462T399 -31Q411 -80 457 -80Z" />
<glyph unicode="]" horiz-adv-x="382" d="M213 800Q243 800 264 787T297 737T309 629Q309 543 301 456T275 272T231 60Q211 -27 190 -74T139 -138T63 -156Q35 -156 12 -150T-25 -130T-39 -96Q-39 -90 -39 -83T-37 -68Q-30 -71 -9 -73T36 -76T75 -78Q104 -6 128
90T169 295T195 513T205 725Q190 725 169 724T129 720T105 715Q102 723 101 732T100 746Q100 771 129 785T213 800Z" />
<glyph unicode="^" horiz-adv-x="689" d="M189 451Q185 451 176 455T153 470T123 499L391 898Q405 920 415 929T434 938H460Q469 938 475 930T490 898L632 499Q612 482 595 472T566 456T549 451Q539 451 533 460T518 492L411 795L434 793L233 492Q219 470 209
461T189 451Z" />
<glyph unicode="_" horiz-adv-x="654" d="M40 -164Q6 -164 -7 -156T-20 -124Q-20 -109 -16 -92T-4 -56Q9 -63 38 -68T107 -73Q138 -73 183 -68T280 -57T386 -46T489 -41Q523 -41 536 -50T549 -82Q549 -97 545 -113T533 -150Q521 -143 492 -138T422 -133Q391 -133
346 -137T249 -148T144 -159T40 -164Z" />
<glyph unicode="`" horiz-adv-x="600" d="M300 676Q287 676 262 686T204 709T131 732T51 742Q47 750 45 762T42 791Q42 846 93 846Q118 846 139 835T185 804T245 763T332 720Q328 698 320 687T300 676Z" />
<glyph unicode="a" horiz-adv-x="748" d="M266 -25Q212 -25 172 4T108 86T85 210Q85 291 114 362T196 486T317 570T465 600Q512 600 563 592Q569 582 572 573T575 554Q481 554 409 528T288 454T214 343T189 204Q189 131 219 91T304 50Q402 50 466 176T562 554Q570
563 583 569T609 575Q632 575 645 566T658 538Q658 504 646 452T618 335T589 195T577 40Q577 12 591 -2Q578 -15 566 -20T540 -25Q511 -25 495 -6T479 50Q479 64 481 80T487 116L477 121Q440 51 385 13T266 -25Z" />
<glyph unicode="b" horiz-adv-x="748" d="M213 -25Q189 -25 165 -19T124 11T107 90Q107 129 116 195T140 343T174 516T214 696L173 739Q193 756 221 765T270 774Q293 774 303 763T314 723Q314 692 294 619T251 445L261 440Q301 517 358 558T482 600Q536 600 577
573T640 496T663 380Q663 295 628 222T532 93T388 6T213 -25ZM186 30Q266 33 334 59T452 132T531 239T559 371Q559 445 529 485T444 526Q395 526 349 491T266 390T208 233T186 30Z" />
<glyph unicode="c" horiz-adv-x="616" d="M310 -25Q206 -25 146 38T86 213Q86 296 113 366T190 489T304 571T442 600Q499 600 531 583T564 533Q564 506 542 488T488 469Q457 469 427 482T377 536Q324 512 282 464T215 350T191 206Q191 125 221 79T306 33Q351 33
384 54T436 113T459 196Q491 196 510 184T530 141Q530 96 500 58T420 -2T310 -25Z" />
<glyph unicode="d" horiz-adv-x="746" d="M265 -25Q211 -25 171 4T107 86T84 210Q84 286 113 352T195 468T316 546T464 575Q520 575 562 567Q568 559 571 550T574 529Q483 529 412 506T290 439T214 336T188 204Q188 131 218 91T303 50Q341 50 380 73T452 141T506
247L496 113L476 121Q439 51 384 13T265 -25ZM531 -25Q509 -25 495 -10T481 38Q481 55 486 97T499 197T517 321T539 456T560 587T580 697L539 740Q559 757 587 766T636 775Q659 775 669 764T680 724Q680 701 670 653T644 538T613 392T587 224T576 47Q576 37 580
21T594 -2Q583 -12 568 -18T531 -25Z" />
<glyph unicode="e" horiz-adv-x="647" d="M303 -25Q201 -25 144 40T87 218Q87 301 113 370T188 491T300 571T441 600Q517 600 559 563T602 458Q602 387 551 337T401 261T161 232L173 284Q331 281 420 329T510 467Q510 505 488 528T428 551Q380 551 337 525T262
452T211 344T192 211Q192 129 223 81T310 33Q378 33 421 75T469 187Q501 187 520 175T540 133Q540 93 509 57T425 -2T303 -25Z" />
<glyph unicode="f" horiz-adv-x="432" d="M167 -200Q142 -200 128 -182T113 -132Q113 -76 140 64T218 445Q213 495 211 537T208 615Q208 682 226 719T274 772T336 787Q372 787 395 768T419 719Q419 691 400 673T349 655Q328 655 308 661T270 684L262 677L310 424Q288
343 269 260T237 100T217 -37T209 -135Q209 -166 228 -178Q193 -200 167 -200ZM112 370Q105 384 105 400Q105 423 121 436T163 454T217 460Q235 460 267 463T335 474T400 491Q407 475 407 461Q407 439 391 426T350 406T295 400Q277 400 246 397T178 387T112 370Z"
/>
<glyph unicode="g" horiz-adv-x="665" d="M156 -234Q89 -234 47 -211T4 -154Q4 -137 16 -118T47 -84Q69 -124 101 -144T183 -164Q220 -164 267 -144T362 -75T448 55T507 260T521 554Q544 571 552 574T568 578Q602 578 602 549Q602 424 587 308T540 93T456 -79T330
-193T156 -234ZM240 3Q185 3 143 32T78 113T54 235Q54 311 79 377T151 493T268 571T424 600Q480 600 522 592Q528 584 531 575T534 554Q446 554 376 531T258 466T184 367T158 239Q158 161 189 118T278 75Q303 75 334 88T398 132T458 218T503 355T520 554L526 146H461Q424
77 363 40T240 3Z" />
<glyph unicode="h" horiz-adv-x="730" d="M144 -25Q115 -25 102 -10T88 33Q88 54 95 101T114 214T141 359T173 525T206 697L165 740Q185 757 213 766T262 775Q285 775 295 764T306 724Q306 701 298 664T274 567T240 418L250 413Q289 484 335 525T430 583T519 600Q584
600 616 568T649 464Q649 417 638 365T613 259T587 150T576 40Q576 27 579 16T587 -2Q563 -25 535 -25Q506 -25 493 -10T480 33Q480 74 489 129T512 242T534 352T544 442Q544 485 529 509T476 533Q428 533 377 498T283 396T212 240T185 40Q185 27 187 16T195 -2Q172
-25 144 -25Z" />
<glyph unicode="i" horiz-adv-x="388" d="M168 -25Q142 -25 128 -12T113 33Q113 53 117 86T131 175T159 316T204 525L163 566Q183 583 209 591T255 600Q281 600 293 590T305 550Q305 545 298 517T281 445T258 348T235 239T217 132T210 40Q210 24 213 14T224 -3Q199
-25 168 -25ZM264 693Q236 693 220 707T203 743Q203 759 211 774T237 799T281 810Q310 810 326 796T342 760Q342 742 333 727T306 702T264 693Z" />
<glyph unicode="j" horiz-adv-x="397" d="M49 -210Q18 -210 3 -192T-13 -149Q-13 -121 6 -105T58 -89Q81 -89 97 -99T124 -117L133 -102Q126 -94 121 -83T114 -56T111 -21Q111 6 120 60T142 189T172 350T201 525L160 566Q179 583 205 591T252 600Q278 600 289
590T301 550Q301 544 295 512T280 429T258 316T232 188T206 58T183 -58Q172 -109 154 -143T109 -193T49 -210ZM260 703Q232 703 216 714T199 744Q199 757 207 769T233 791T277 800Q305 800 321 788T338 759Q338 744 329 731T302 711T260 703Z" />
<glyph unicode="k" horiz-adv-x="626" d="M172 159L184 210L337 331Q376 363 410 399T466 474T488 551Q488 559 487 566T484 581Q494 591 508 595T535 600Q560 600 574 584T589 540Q589 489 541 430T388 303L172 159ZM157 -25Q135 -25 121 -10T107 38Q107 55 112
97T125 197T143 321T165 456T186 587T206 697L165 740Q185 757 213 766T262 775Q285 775 295 764T306 724Q306 701 296 653T270 538T239 392T213 224T202 47Q202 37 206 21T220 -2Q209 -12 194 -18T157 -25ZM534 -25Q500 -25 474 -5T416 75L303 278L377 339L483
146Q509 104 534 74T612 24Q598 -1 576 -13T534 -25Z" />
<glyph unicode="l" horiz-adv-x="372" d="M157 -25Q135 -25 121 -10T107 38Q107 55 112 97T125 197T143 321T165 456T186 587T206 697L165 740Q185 757 213 766T262 775Q285 775 295 764T306 724Q306 712 299 673T279 577T254 452T229 311T210 171T202 47Q202
37 206 21T220 -2Q209 -12 194 -18T157 -25Z" />
<glyph unicode="m" horiz-adv-x="1114" d="M172 -25Q143 -25 130 -10T116 33Q116 56 122 97T138 190T160 299T185 410T209 509L166 552Q187 573 216 584T264 596Q290 596 300 586T310 547Q310 521 302 487T277 422L287 417Q339 518 399 559T529 600Q598 600 623
563T649 470Q649 460 648 448T643 422L653 417Q707 518 769 559T903 600Q968 600 1000 568T1033 464Q1033 417 1022 365T997 259T972 150T961 40Q961 27 963 16T971 -2Q948 -25 920 -25Q891 -25 878 -9T864 38Q864 77 874 131T896 243T919 354T929 443Q929 486
913 509T860 533Q815 533 767 498T679 396T613 240T587 40Q587 27 589 16T597 -2Q574 -25 546 -25Q517 -25 504 -9T490 38Q490 77 500 131T522 243T545 354T555 443Q555 486 539 509T486 533Q441 533 393 498T305 396T239 240T213 40Q213 27 215 16T223 -2Q200
-25 172 -25Z" />
<glyph unicode="n" horiz-adv-x="758" d="M172 -25Q145 -25 131 -12T116 33Q116 55 123 104T144 220T173 361T209 509L166 552Q187 573 216 584T264 596Q290 596 300 586T310 547Q310 521 302 487T277 422L287 417Q335 503 400 551T547 600Q613 600 645 567T677
464Q677 417 666 365T641 259T615 150T604 40Q604 11 615 -2Q592 -25 563 -25Q536 -25 522 -12T508 33Q508 74 517 129T540 242T562 352T572 442Q572 489 555 511T504 533Q455 533 411 505T331 427T269 314T228 181T213 40Q213 9 223 -2Q200 -25 172 -25Z" />
<glyph unicode="o" horiz-adv-x="727" d="M322 -25Q252 -25 200 7T119 99T90 238Q90 318 115 384T186 499T294 573T433 600Q455 600 473 599T511 592Q518 584 521 575T525 554Q418 554 344 513T233 398T195 230Q195 141 229 87T327 33Q392 33 443 69T528 172T570
326Q528 354 510 385T491 456Q491 478 499 495T523 522T559 532Q602 532 625 492T649 380Q649 295 624 222T554 93T450 6T322 -25Z" />
<glyph unicode="p" horiz-adv-x="771" d="M308 0Q255 0 209 8Q203 18 200 27T197 46Q315 46 401 86T536 199T584 371Q584 445 554 485T468 526Q413 526 368 476T287 329T220 89L251 474L295 434Q333 514 388 557T506 600Q561 600 601 571T664 489T687 365Q687
289 658 223T576 107T456 29T308 0ZM160 -200Q137 -200 124 -182T110 -127Q110 -107 117 -48T138 101T170 299T209 522L168 565Q186 580 214 590T265 600Q289 600 299 589T309 549Q309 526 299 478T273 363T242 216T216 49T205 -129Q205 -143 210 -158T223 -177Q211
-188 196 -194T160 -200Z" />
<glyph unicode="q" horiz-adv-x="737" d="M478 -199Q455 -199 445 -188T434 -148Q434 -119 451 -49T487 116L477 121Q440 51 385 13T266 -25Q212 -25 172 4T108 86T85 210Q85 291 114 362T196 486T317 570T465 600Q517 600 563 592Q569 582 572 573T575 554Q481
554 409 528T288 454T214 343T189 204Q189 131 219 91T304 50Q353 50 399 86T482 188T540 348T562 554Q573 567 587 571T609 575Q632 575 645 566T658 538Q658 513 647 449T617 293T576 95T534 -121L575 -164Q555 -181 527 -190T478 -199Z" />
<glyph unicode="r" horiz-adv-x="479" d="M171 -25Q144 -25 130 -8T115 48Q115 69 123 119T144 237T174 375T208 509L166 552Q191 573 213 584T254 596Q280 596 290 581T300 547Q300 513 289 474T257 388L267 383Q301 461 335 509T403 579T466 601Q495 601 509
590T524 552Q524 523 500 507T439 491Q397 491 357 453T284 349T232 204T212 40Q212 9 222 -2Q199 -25 171 -25Z" />
<glyph unicode="s" horiz-adv-x="611" d="M263 -25Q205 -25 159 -14T86 18T59 72Q59 90 71 105T103 131Q128 80 170 54T258 28Q312 28 351 41T411 80T432 145Q432 174 408 192T346 225T265 254T184 289T121 339T97 416Q97 454 117 487T176 546T269 586T390 600Q464
600 513 579T562 523Q562 488 540 471T481 454Q443 454 419 478T382 546Q289 536 239 503T189 426Q189 399 213 381T275 349T356 320T437 285T499 235T523 160Q523 124 508 91T460 32T379 -9T263 -25Z" />
<glyph unicode="t" horiz-adv-x="442" d="M208 -25Q194 -25 181 -20T161 2T153 50Q153 94 163 148T189 262T219 381T244 492T255 585Q255 607 252 627T246 667Q259 682 282 690T326 698Q351 698 363 687T375 647Q375 617 362 570T331 462T294 333T263 192T251
48L277 4Q261 -11 243 -18T208 -25ZM164 442Q142 442 133 451T123 477Q123 487 126 498T139 521Q155 517 182 515T229 513Q275 513 325 524T425 535Q448 535 456 525T465 499Q465 489 462 479T449 457Q433 462 407 463T363 465Q317 465 266 454T164 442Z" />
<glyph unicode="u" horiz-adv-x="737" d="M266 -25Q184 -25 145 15T105 137Q105 182 113 231T131 330T149 424T157 505Q157 525 155 543T148 578Q163 588 179 594T206 600Q232 600 244 586T257 537Q257 515 251 477T235 394T217 303T201 220T194 162Q194 101 221
69T297 37Q359 37 411 83T493 212L480 62L450 78Q430 48 399 25T332 -12T266 -25ZM515 -25Q487 -25 474 -4T460 63Q460 91 469 145T497 288T547 512L510 566Q515 574 530 582T566 595T602 600Q629 600 640 589T652 550Q652 545 645 517T628 445T605 348T582 239T564
132T557 40Q557 9 571 -3Q548 -25 515 -25Z" />
<glyph unicode="v" horiz-adv-x="645" d="M252 -25Q211 -25 188 -7T157 55T148 178Q148 237 149 295T146 407T129 505T85 580Q111 600 144 600Q186 600 207 570T235 468T242 275Q242 200 242 158T242 95T243 66T243 52H253Q340 173 392 258T468 401T492 494Q492
546 471 580Q497 593 509 596T538 600Q559 600 572 581T585 528Q585 497 569 449T520 337T440 196T329 29L343 5Q335 -3 320 -10T287 -21T252 -25Z" />
<glyph unicode="w" horiz-adv-x="904" d="M205 -25Q172 -25 162 -4T151 79Q151 153 152 226T149 366T131 488T85 580Q111 600 144 600Q186 600 207 570T235 468T242 275Q242 200 242 158T242 95T242 66T241 52H251Q323 145 368 224T436 362T469 453T478 483Q478
493 469 506T449 532T436 550Q457 563 471 566T500 570Q525 570 540 552T555 503Q555 471 543 437T505 355T438 232Q393 150 360 99T300 21T251 -15T205 -25ZM549 -25Q516 -25 500 -9T477 35T468 96L437 546Q445 557 461 563T500 570L523 509L537 52H547Q621 173
666 258T731 401T751 494Q751 546 730 580Q755 593 767 596T797 600Q818 600 831 581T844 528Q844 497 830 449T787 337T718 196T623 29L637 5Q629 -3 614 -10T582 -21T549 -25Z" />
<glyph unicode="x" horiz-adv-x="640" d="M522 -25Q498 -25 478 -14T438 22T398 89L211 429Q188 469 168 492T128 528T82 550Q96 573 118 586T163 600Q188 600 208 589T247 553T287 485L473 146Q497 106 517 83T557 46T602 24Q589 2 567 -11T522 -25ZM95 -25Q72
-25 59 -9T45 35Q45 53 55 73T94 123T180 198L315 307L341 259Q233 185 188 128T143 31Q143 21 145 12T151 -5Q146 -11 130 -18T95 -25ZM360 269L334 317Q442 391 487 447T532 544Q532 555 530 564T524 580Q529 587 545 594T580 601Q603 601 616 585T630 540Q630
524 620 503T581 453T495 378L360 269Z" />
<glyph unicode="y" horiz-adv-x="654" d="M56 -200Q-4 -200 -30 -179T-57 -127Q-57 -116 -53 -103T-44 -80Q-33 -91 -19 -103T21 -123T85 -131Q117 -131 162 -118T257 -75T355 4T443 126T505 298T529 525Q529 537 529 553T527 580Q551 593 561 596T587 600Q601
600 613 590T626 547Q626 464 609 377T557 206T473 49T361 -80T221 -168T56 -200ZM339 -25Q274 -25 237 1T182 71T158 171T151 287T147 403T130 506T85 580Q111 600 141 600Q183 600 205 575T237 508T247 414T249 306T253 198T270 104T313 37T394 12L339 -25Z"
/>
<glyph unicode="z" horiz-adv-x="599" d="M205 72L121 89L385 482L498 507L205 72ZM407 -25Q343 -25 290 -10T178 25Q153 2 133 -8T89 -18Q65 -18 53 -2T40 33Q40 53 52 71T89 101T151 113Q174 113 207 104T277 83T348 62T407 53L498 106Q507 93 513 80T519 52Q519
30 504 13T463 -15T407 -25ZM322 465Q247 466 199 474T128 503T105 559Q105 567 107 577T116 605Q149 591 189 578T269 555T344 538T402 530Q416 562 441 581T494 600Q520 600 537 588T554 551Q554 533 543 518T506 490T435 472T322 465Z" />
<glyph unicode="{" horiz-adv-x="336" d="M129 -156Q84 -156 62 -129T40 -46Q40 -3 48 55T76 180T124 310Q115 307 105 307Q89 307 77 317T64 344Q64 358 75 368T102 378Q119 378 132 367Q135 397 137 437T140 518T141 591Q141 665 153 707T185 769T230 794T280
800Q324 800 351 785T378 740Q378 734 378 728T377 712Q370 715 349 717T305 720T268 722Q257 625 246 561T220 455T190 387T152 339Q171 317 181 288T192 225Q192 219 191 204T184 157T169 67T141 -81Q156 -81 178 -80T219 -76T243 -71Q245 -79 246 -88T248 -102Q248
-127 219 -141T129 -156Z" />
<glyph unicode="|" horiz-adv-x="437" d="M118 -180Q96 -180 86 -168T75 -126L281 797L272 858Q286 869 305 874T339 880Q362 880 372 868T382 826L176 -97L185 -158Q171 -169 152 -174T118 -180Z" />
<glyph unicode="}" horiz-adv-x="336" d="M218 800Q263 800 285 773T307 690Q307 647 299 589T271 464T223 334Q232 337 242 337Q258 337 270 327T283 300Q283 286 272 276T245 266Q228 266 215 277Q212 247 210 207T207 126T206 53Q206 -21 194 -63T162 -125T117
-150T67 -156Q23 -156 -4 -141T-31 -96Q-31 -90 -31 -84T-30 -68Q-23 -71 -2 -73T42 -76T79 -78Q90 19 101 83T127 189T157 257T195 305Q176 327 166 356T155 419Q155 425 156 440T163 487T178 577T206 725Q191 725 169 724T128 720T104 715Q102 723 101 732T99
746Q99 771 128 785T218 800Z" />
<glyph unicode="~" horiz-adv-x="709" d="M189 294Q162 294 151 302T139 340Q139 351 143 365T155 397Q209 397 269 405T385 425T484 444T547 453Q575 453 586 445T597 407Q597 397 593 383T581 350Q527 350 468 342T352 322T253 303T189 294Z" />
<glyph unicode="&#xa0;" horiz-adv-x="330" />
<glyph unicode="&#xa1;" horiz-adv-x="350" d="M219 333Q238 333 244 323T250 296Q250 276 244 240T230 160T213 69T199 -19T193 -91Q193 -111 196 -134T211 -172Q196 -186 175 -193T130 -200Q93 -200 78 -177T62 -118Q62 -99 70 -59T91 33T119 138T149 239T175
316Q185 325 197 329T219 333ZM262 600Q288 600 306 583T324 540Q324 520 315 504T290 477T252 467Q225 467 208 484T190 527Q190 546 199 562T225 589T262 600Z" />
<glyph unicode="&#xa2;" horiz-adv-x="567" d="M290 74Q194 74 140 128T85 280Q85 350 110 409T179 512T280 580T404 605Q456 605 485 590T515 546Q515 522 496 506T448 490Q420 490 392 502T346 548Q299 528 261 489T202 394T180 274Q180 204 208 165T285 125Q326
125 356 143T403 192T422 263Q452 263 470 252T488 214Q488 176 461 144T389 93T290 74ZM240 -72Q229 -72 218 -69T195 -60Q205 -22 215 18T236 103H318Q312 73 307 43T296 -19Q286 -71 240 -72ZM340 578Q349 616 358 655T377 737Q389 786 435 786Q446 786 457
783T478 773Q464 728 449 680T420 578H340Z" />
<glyph unicode="&#xa3;" horiz-adv-x="593" d="M444 -30Q412 -30 379 -26T302 -8T188 34Q160 3 138 -9T90 -22Q67 -22 51 -7T35 30Q35 68 67 93T149 118Q170 118 207 108T289 85T374 61T444 51L544 110Q558 91 564 78T570 54Q570 30 553 11T508 -19T444 -30ZM144
72L181 469Q193 597 250 647T413 698Q493 698 540 676T587 606Q587 599 586 590T580 563Q534 585 462 597T307 610L211 74L144 72ZM124 300Q100 300 91 309T81 334Q81 342 84 353T98 375Q115 370 144 369T194 367Q243 367 295 377T401 388Q425 388 433 379T442
355Q442 346 440 336T427 314Q410 319 382 320T334 322Q302 322 267 317T196 306T124 300Z" />
<glyph unicode="&#xa4;" horiz-adv-x="643" d="M307 132Q221 132 173 182T125 312Q125 380 158 431T249 510T384 539Q461 539 504 489T547 359Q547 319 530 279T480 206T404 152T307 132ZM111 20Q100 20 89 24T69 36T52 53Q87 98 123 147T197 251L248 190Q227
157 205 123T160 51Q149 36 137 28T111 20ZM453 20Q426 20 410 51Q392 89 375 123T342 190L423 217Q447 173 471 132T517 53Q509 44 498 37T476 25T453 20ZM306 200Q357 200 389 226T436 294T452 382Q452 407 444 427T411 460T342 472Q332 472 322 472T301 471Q259
434 240 389T220 305Q220 261 242 231T306 200ZM244 450Q224 488 210 513T181 563T147 618Q156 628 167 635T190 647T212 651Q239 651 255 620Q267 595 274 580T287 552T304 516L244 450ZM486 454L410 481Q431 514 453 548T498 620Q520 651 547 651Q557 651 568
647T589 636T606 618Q578 581 548 540T486 454Z" />
<glyph unicode="&#xa5;" horiz-adv-x="617" d="M319 224Q275 224 257 255T231 370Q225 433 214 492T182 600T122 680Q148 700 185 700Q227 700 253 670T296 586T322 460T341 302H345Q378 332 408 372T461 455T498 537T512 607Q512 649 484 680Q515 694 528 697T555
700Q579 700 594 682T610 636Q610 591 590 536T538 426T467 326T390 252T319 224ZM149 181Q125 181 116 189T107 214Q107 222 110 233T123 256Q140 250 169 249T219 247Q237 247 256 249T295 254L291 196Q257 192 221 187T149 181ZM285 -25Q260 -25 248 -9T236
43Q236 66 241 98T259 180T289 303H393Q371 210 358 153T344 54Q344 35 347 22T358 -3Q336 -15 319 -20T285 -25ZM172 311Q148 311 139 319T130 344Q130 352 133 363T146 386Q163 380 192 379T242 377Q258 377 274 379T307 382L302 325Q271 321 238 316T172 311ZM531
194Q515 199 488 200T440 201Q418 201 393 200T340 196L345 254Q384 259 424 264T505 269Q530 269 539 259T548 235Q548 225 545 215T531 194ZM552 324Q536 329 509 330T461 331Q448 331 434 331T403 331L426 388Q451 393 476 396T526 399Q551 399 560 389T569
365Q569 355 566 345T552 324Z" />
<glyph unicode="&#xa6;" horiz-adv-x="437" d="M207 465L281 797L272 858Q286 869 305 874T339 880Q362 880 372 868T382 826L301 465H207ZM118 -180Q96 -180 86 -168T75 -126L156 236H249L176 -97L185 -158Q171 -169 152 -174T118 -180Z" />
<glyph unicode="&#xa7;" horiz-adv-x="704" d="M448 96L360 147Q428 166 463 198T499 274Q499 306 473 327T406 366T319 401T232 443T165 504T139 593Q139 631 156 667T207 732T296 778T424 795Q488 795 538 782T619 742T649 675Q649 655 639 638T610 610Q583
672 534 702T430 733Q348 733 296 703T243 612Q243 577 269 554T336 514T423 478T511 436T578 376T604 285Q604 246 586 210T533 145T448 96ZM284 -187Q221 -187 170 -174T89 -133T59 -67Q59 -47 70 -30T99 -2Q126 -64 175 -94T279 -125Q361 -125 413 -95T466 -4Q466
31 440 54T373 95T285 130T198 172T130 232T104 324Q104 358 118 390T159 450T227 499L342 459Q277 440 243 408T209 335Q209 303 235 282T302 243T389 207T476 165T543 105T569 15Q569 -23 552 -59T501 -124T412 -170T284 -187Z" />
<glyph unicode="&#xa8;" horiz-adv-x="600" d="M466 693Q439 693 424 707T408 743Q408 759 416 774T441 799T483 810Q510 810 525 796T540 760Q540 732 520 713T466 693ZM212 693Q185 693 170 707T155 743Q155 759 163 774T188 799T229 810Q256 810 271 796T287
760Q287 742 278 727T252 702T212 693Z" />
<glyph unicode="&#xa9;" horiz-adv-x="896" d="M424 150Q359 150 299 171T190 235T113 342T85 493Q85 614 141 704T299 845T537 896Q584 896 607 888T639 862T650 818Q733 773 772 700T811 546Q811 448 778 374T688 250T564 175T424 150ZM423 213Q501 213 562
241T667 316T733 423T756 543Q756 590 739 638T688 726T602 790T480 815Q389 815 315 779T198 672T154 494Q154 398 191 336T290 243T423 213ZM430 321Q365 321 328 360T291 470Q291 523 308 568T357 647T428 700T514 719Q549 719 569 708T589 678Q589 661 576
650T542 639Q523 639 504 647T473 680Q436 664 408 633T364 559T347 465Q347 412 368 383T426 353Q455 353 476 367T510 404T525 458Q541 458 551 451T562 425Q562 397 544 373T495 335T430 321Z" />
<glyph unicode="&#xaa;" horiz-adv-x="519" d="M205 333Q151 333 118 376T84 490Q84 570 120 633T218 733T354 770Q386 770 419 764Q423 757 425 748T427 730Q341 730 285 700T202 617T174 499Q174 454 193 430T246 405Q311 405 352 486T414 730Q434 753 463 753Q502
753 502 719Q502 697 494 662T476 584T457 491T449 392Q449 380 451 370T461 355Q449 343 437 338T412 333Q387 333 374 348T360 392Q360 401 361 411T365 433L358 436Q331 387 291 360T205 333Z" />
<glyph unicode="&#xab;" horiz-adv-x="616" d="M465 25Q439 57 411 95T357 170T317 238T301 288Q301 312 309 332T341 378T412 444T536 549Q534 549 544 547T567 534T579 501Q579 483 561 460T510 411T437 357T348 300Q405 243 442 205T498 138T517 78Q517 57
511 46T494 30T465 25ZM225 25Q199 57 171 95T117 170T77 238T61 288Q61 312 69 332T101 378T172 444T296 549Q294 549 305 547T327 534T339 501Q339 483 321 460T270 411T197 357T110 300Q166 243 203 205T259 138T278 78Q278 57 272 46T254 30T225 25Z" />
<glyph unicode="&#xac;" horiz-adv-x="701" d="M472 86Q452 86 447 98T446 141L488 425L585 389L542 102Q520 95 503 91T472 86ZM197 321Q166 321 154 329T142 357Q142 370 146 386T158 424H531Q562 424 573 417T585 389L569 321H197Z" />
<glyph unicode="&#xad;" horiz-adv-x="499" d="M114 243Q95 243 82 252T69 288Q69 310 85 339Q98 337 108 336T130 335Q166 335 198 340T262 351T325 362T391 367Q410 367 423 358T436 323Q436 312 432 299T420 272Q408 274 398 275T376 276Q339 276 307 271T243
260T180 248T114 243Z" />
<glyph unicode="&#xae;" horiz-adv-x="896" d="M424 150Q359 150 299 171T190 235T113 342T85 493Q85 614 141 704T299 845T537 896Q584 896 607 888T639 862T650 818Q733 773 772 700T811 546Q811 448 778 374T688 250T564 175T424 150ZM423 213Q501 213 562
241T667 316T733 423T756 543Q756 590 739 638T688 726T602 790T480 815Q389 815 315 779T198 672T154 494Q154 398 191 336T290 243T423 213ZM449 467Q418 467 395 475T346 505L362 520Q376 510 393 506T428 501Q465 501 492 514T533 549T547 600Q547 622 539
640T513 670T461 682Q439 682 417 672T370 643V657Q386 674 402 688T440 710T491 718Q527 718 551 703T588 662T601 607Q601 583 592 558T564 513T517 480T449 467ZM339 320Q323 320 316 328T309 356Q309 373 311 396T317 455T330 544T352 674L338 701Q352 709
365 714T389 719Q408 719 408 696Q408 692 405 672T397 620T385 554T374 483T366 419T362 373Q362 360 365 350T374 331Q356 320 339 320ZM566 321Q552 321 542 327T521 353T492 412L457 486L502 505Q519 467 537 433T573 373T603 335Q599 331 593 328T579 323T566
321Z" />
<glyph unicode="&#xaf;" horiz-adv-x="600" d="M151 708Q111 708 111 753Q111 766 118 789T133 823Q144 818 161 815T193 811Q237 811 283 815T377 819Q443 819 443 778Q443 765 441 753T431 720Q423 724 405 726T368 729Q316 729 258 719T151 708Z" />
<glyph unicode="&#xb0;" horiz-adv-x="496" d="M262 258Q183 258 137 306T90 437Q90 507 121 560T209 642T339 672Q352 672 367 670T392 663Q395 660 396 653T398 636Q441 625 462 589T484 494Q484 428 455 375T375 290T262 258ZM267 309Q304 309 333 332T379
395T396 487Q396 607 289 607Q276 607 265 605T239 599Q209 563 193 517T177 428Q177 373 202 341T267 309Z" />
<glyph unicode="&#xb1;" horiz-adv-x="701" d="M314 151Q294 151 288 163T288 206L347 578Q391 594 417 594Q437 594 442 583T443 540L384 167Q362 160 345 156T314 151ZM198 321Q167 321 155 329T143 357Q143 370 147 386T159 424H532Q563 424 574 417T586 389Q586
363 570 321H198ZM125 -133Q94 -133 82 -125T70 -97Q70 -84 74 -68T86 -30H459Q490 -30 501 -37T513 -65Q513 -91 497 -133H125Z" />
<glyph unicode="&#xb2;" horiz-adv-x="442" d="M164 327L121 357Q188 392 233 429T301 504T324 573Q324 614 306 632T252 651Q214 651 188 622T157 547Q132 549 119 564T105 603Q105 652 150 681T268 710Q311 710 343 694T393 649T412 582Q412 541 388 503T309
422T164 327ZM110 272Q91 272 78 284T65 316Q65 345 89 364T153 384Q170 384 195 377T247 361T299 345T343 338L418 379Q428 365 431 355T434 334Q434 308 408 290T343 272Q309 272 274 281T179 309Q141 272 110 272Z" />
<glyph unicode="&#xb3;" horiz-adv-x="428" d="M194 272Q138 272 106 287T73 329Q73 348 86 360T118 373Q138 373 156 358T187 316Q240 316 271 337T302 394Q302 426 270 447T188 469L187 504Q240 504 276 526T312 582Q312 614 293 631T238 648Q206 648 183 626T152
565Q129 567 117 579T104 612Q104 656 143 683T247 710Q309 710 348 680T387 599Q387 560 364 532T298 489Q339 473 360 449T381 394Q381 359 357 331T291 288T194 272Z" />
<glyph unicode="&#xb4;" horiz-adv-x="600" d="M126 675Q115 675 107 686T94 719Q147 740 181 762T241 803T287 833T333 845Q384 845 384 790Q384 774 382 762T375 741Q334 741 295 731T223 708T164 685T126 675Z" />
<glyph unicode="&#xb5;" horiz-adv-x="737" d="M122 -200Q99 -200 86 -182T72 -127Q72 -107 79 -48T100 101T132 299T171 522L130 565Q148 580 176 590T227 600Q251 600 261 589T271 549Q271 533 263 494T244 404T222 301T202 205T194 137Q194 37 297 37Q359 37
411 83T493 212L480 62L450 78Q435 44 402 20T326 -15T243 -14T171 34Q156 -58 162 -105T185 -177Q173 -188 158 -194T122 -200ZM515 -25Q487 -25 474 -4T460 63Q460 91 469 145T497 288T547 512L510 566Q515 574 530 582T566 595T602 600Q629 600 640 589T652
550Q652 545 645 517T628 445T605 348T582 239T564 132T557 40Q557 9 571 -3Q548 -25 515 -25Z" />
<glyph unicode="&#xb6;" horiz-adv-x="568" d="M336 -99Q296 -99 280 -75T263 -13Q263 19 273 67T304 178T354 313T423 463H403Q370 405 329 377T237 349Q190 349 159 370T113 426T97 501Q97 541 111 582T155 657T229 713T332 734Q358 734 390 727T451 700T500
647T519 559Q519 510 502 444T461 300T420 141T402 -22Q402 -38 406 -51T420 -72Q398 -86 376 -92T336 -99Z" />
<glyph unicode="&#xb7;" horiz-adv-x="333" d="M142 230Q116 230 98 247T80 290Q80 310 89 326T114 353T152 363Q179 363 196 346T214 303Q214 284 205 268T179 241T142 230Z" />
<glyph unicode="&#xb8;" horiz-adv-x="600" d="M145 -287Q91 -287 59 -264T27 -203Q27 -179 44 -161T89 -131T153 -120Q131 -131 118 -151T105 -192Q105 -216 118 -227T156 -238Q190 -238 213 -214T237 -157Q237 -77 153 -39Q236 -39 282 -71T328 -159Q328 -195
304 -224T239 -270T145 -287Z" />
<glyph unicode="&#xb9;" horiz-adv-x="332" d="M176 272Q151 272 139 285T126 324Q126 344 131 380T143 460T159 544T173 611Q160 611 147 618T123 637T108 665Q149 674 174 684T216 702T247 710Q276 710 276 679Q276 660 267 620T245 531T224 433T214 346Q214
330 216 315T223 287Q198 272 176 272Z" />
<glyph unicode="&#xba;" horiz-adv-x="491" d="M262 333Q183 333 136 383T88 518Q88 593 120 649T208 738T337 770Q353 770 363 770T385 766Q388 758 389 747T391 724Q326 727 278 701T204 626T178 514Q178 450 203 416T274 382Q336 382 375 430T414 560Q414 607
404 641T373 700Q381 712 394 718T421 725Q450 725 469 694T489 610Q489 530 461 468T383 369T262 333Z" />
<glyph unicode="&#xbb;" horiz-adv-x="645" d="M181 560Q207 528 235 490T289 415T329 347T345 297Q345 273 337 253T305 207T234 141T110 36Q112 36 102 38T79 51T67 84Q67 102 85 125T136 174T209 228T298 285Q241 342 204 380T148 447T129 507Q129 528 135
539T152 555T181 560ZM421 560Q447 528 475 490T529 415T569 347T585 297Q585 273 577 253T545 207T474 141T350 36Q352 36 341 38T319 51T307 84Q307 102 325 125T376 174T449 228T536 285Q480 342 443 380T387 447T368 507Q368 528 374 539T392 555T421 560Z"
/>
<glyph unicode="&#xbc;" horiz-adv-x="968" d="M176 272Q151 272 139 285T126 324Q126 344 131 380T143 460T159 544T173 611Q160 611 147 618T123 637T108 665Q149 674 174 684T216 702T247 710Q276 710 276 679Q276 660 267 620T245 531T224 433T214 346Q214
330 216 315T223 287Q198 272 176 272ZM273 -40Q262 -40 252 -37T232 -27Q283 72 338 185T456 437T591 747Q611 796 657 796Q668 796 678 793T698 783Q624 645 539 456T341 9Q318 -40 273 -40ZM628 35Q577 35 553 49T528 93Q528 110 544 135T585 190T633 253T673
316T690 373Q690 387 683 404Q697 410 709 412T732 415Q784 415 784 348Q784 299 735 238T587 96H836L807 56Q771 48 721 42T628 35ZM819 -23Q792 -23 778 -6T764 43Q764 64 772 104T796 194T833 288Q844 295 858 300T884 305Q897 305 901 302T906 289Q906 273
895 235T872 148T861 49Q861 39 864 23T872 -6Q856 -15 844 -19T819 -23Z" />
<glyph unicode="&#xbd;" horiz-adv-x="1010" d="M176 272Q151 272 139 285T126 324Q126 344 131 380T143 460T159 544T173 611Q160 611 147 618T123 637T108 665Q149 674 174 684T216 702T247 710Q276 710 276 679Q276 660 267 620T245 531T224 433T214 346Q214
330 216 315T223 287Q198 272 176 272ZM273 -40Q262 -40 252 -37T232 -27Q283 72 338 185T456 437T591 747Q611 796 657 796Q668 796 678 793T698 783Q624 645 539 456T341 9Q318 -40 273 -40ZM667 32L624 62Q691 97 736 134T804 209T827 278Q827 319 809 337T755
356Q717 356 691 327T660 252Q635 254 622 269T608 308Q608 357 653 386T771 415Q814 415 846 399T896 354T915 287Q915 246 891 208T812 127T667 32ZM613 -23Q594 -23 581 -11T568 21Q568 50 592 69T656 89Q673 89 698 82T750 66T802 50T846 43L921 84Q931 70
934 60T937 39Q937 13 911 -5T846 -23Q812 -23 777 -14T682 14Q644 -23 613 -23Z" />
<glyph unicode="&#xbe;" horiz-adv-x="1064" d="M194 272Q138 272 106 287T73 329Q73 348 86 360T118 373Q138 373 156 358T187 316Q240 316 271 337T302 394Q302 426 270 447T188 469L187 504Q240 504 276 526T312 582Q312 614 293 631T238 648Q206 648 183 626T152
565Q129 567 117 579T104 612Q104 656 143 683T247 710Q309 710 348 680T387 599Q387 560 364 532T298 489Q339 473 360 449T381 394Q381 359 357 331T291 288T194 272ZM369 -40Q358 -40 348 -37T328 -27Q379 72 434 185T552 437T687 747Q707 796 753 796Q764 796
774 793T794 783Q720 645 635 456T437 9Q414 -40 369 -40ZM724 35Q673 35 649 49T624 93Q624 110 640 135T681 190T729 253T769 316T786 373Q786 387 779 404Q793 410 805 412T828 415Q880 415 880 348Q880 299 831 238T683 96H932L903 56Q867 48 817 42T724 35ZM915
-23Q888 -23 874 -6T860 43Q860 64 868 104T892 194T929 288Q940 295 954 300T980 305Q993 305 997 302T1002 289Q1002 273 991 235T968 148T957 49Q957 39 960 23T968 -6Q952 -15 940 -19T915 -23Z" />
<glyph unicode="&#xbf;" horiz-adv-x="601" d="M257 340Q281 340 299 325T318 286Q277 283 237 264T164 212T112 135T92 38Q92 -29 127 -69T224 -109Q263 -109 301 -90T368 -31T410 69Q426 69 437 62T453 41T459 7Q459 -14 448 -48T408 -118T331 -176T206 -200Q122
-200 72 -166T0 -79T-22 33Q-22 100 3 156T70 254T161 317T257 340ZM320 600Q346 600 364 583T382 540Q382 520 373 504T348 477T310 467Q283 467 266 484T248 527Q248 546 257 562T283 589T320 600Z" />
<glyph unicode="&#xc0;" horiz-adv-x="674" d="M98 -23Q50 -23 50 57Q50 98 70 159T128 300T224 474T355 676L325 707Q348 721 367 727T411 734Q447 734 454 715Q473 734 498 734Q522 734 534 718T546 665Q546 623 545 565T544 439T548 303T559 174T581 67T619
-1Q591 -23 554 -23Q521 -23 499 -5T465 59T448 182T443 378Q443 479 443 543T443 644H431Q333 499 272 392T182 208T153 83Q153 29 166 -1Q151 -13 136 -18T98 -23ZM136 194L149 253H495L484 194H136ZM550 811Q537 811 512 821T454 844T381 867T301 877Q297 885
295 897T292 926Q292 981 343 981Q368 981 389 970T435 939T495 898T582 855Q578 833 570 822T550 811Z" />
<glyph unicode="&#xc1;" horiz-adv-x="674" d="M98 -23Q50 -23 50 57Q50 98 70 159T128 300T224 474T355 676L325 707Q348 721 367 727T411 734Q447 734 454 715Q473 734 498 734Q522 734 534 718T546 665Q546 623 545 565T544 439T548 303T559 174T581 67T619
-1Q591 -23 554 -23Q521 -23 499 -5T465 59T448 182T443 378Q443 479 443 543T443 644H431Q333 499 272 392T182 208T153 83Q153 29 166 -1Q151 -13 136 -18T98 -23ZM136 194L149 253H495L484 194H136ZM358 810Q347 810 339 821T326 854Q379 875 413 897T473 938T519
968T565 980Q616 980 616 925Q616 909 614 897T607 876Q566 876 527 866T455 843T396 820T358 810Z" />
<glyph unicode="&#xc2;" horiz-adv-x="674" d="M98 -23Q50 -23 50 57Q50 98 70 159T128 300T224 474T355 676L325 707Q348 721 367 727T411 734Q447 734 454 715Q473 734 498 734Q522 734 534 718T546 665Q546 623 545 565T544 439T548 303T559 174T581 67T619
-1Q591 -23 554 -23Q521 -23 499 -5T465 59T448 182T443 378Q443 479 443 543T443 644H431Q333 499 272 392T182 208T153 83Q153 29 166 -1Q151 -13 136 -18T98 -23ZM136 194L149 253H495L484 194H136ZM372 799Q355 799 345 807T335 826Q335 852 352 885T394 949T444
1001Q461 1011 474 1017T522 1023Q545 1023 561 1013T580 976L585 883Q586 858 594 843T614 818Q597 808 583 804T552 799Q530 799 516 810T501 852Q501 888 503 919T513 976H499Q483 961 468 935T445 879T437 817Q434 810 415 805T372 799Z" />
<glyph unicode="&#xc3;" horiz-adv-x="674" d="M98 -23Q50 -23 50 57Q50 98 70 159T128 300T224 474T355 676L325 707Q348 721 367 727T411 734Q447 734 454 715Q473 734 498 734Q522 734 534 718T546 665Q546 623 545 565T544 439T548 303T559 174T581 67T619
-1Q591 -23 554 -23Q521 -23 499 -5T465 59T448 182T443 378Q443 479 443 543T443 644H431Q333 499 272 392T182 208T153 83Q153 29 166 -1Q151 -13 136 -18T98 -23ZM136 194L149 253H495L484 194H136ZM336 833Q303 833 294 844T284 878Q284 893 289 911T302 945Q316
941 330 938T361 934Q406 934 443 945T511 966T568 977Q602 977 611 966T620 932Q620 917 615 899T602 864Q589 868 574 871T543 875Q499 875 462 865T394 844T336 833Z" />
<glyph unicode="&#xc4;" horiz-adv-x="674" d="M98 -23Q50 -23 50 57Q50 98 70 159T128 300T224 474T355 676L325 707Q348 721 367 727T411 734Q447 734 454 715Q473 734 498 734Q522 734 534 718T546 665Q546 623 545 565T544 439T548 303T559 174T581 67T619
-1Q591 -23 554 -23Q521 -23 499 -5T465 59T448 182T443 378Q443 479 443 543T443 644H431Q333 499 272 392T182 208T153 83Q153 29 166 -1Q151 -13 136 -18T98 -23ZM136 194L149 253H495L484 194H136ZM582 828Q555 828 540 842T524 878Q524 894 532 909T557 934T599
945Q626 945 641 931T656 895Q656 867 636 848T582 828ZM328 828Q301 828 286 842T271 878Q271 894 279 909T304 934T345 945Q372 945 387 931T403 895Q403 877 394 862T368 837T328 828Z" />
<glyph unicode="&#xc5;" horiz-adv-x="674" d="M98 -23Q50 -23 50 57Q50 98 70 159T128 300T224 474T355 676L325 707Q348 721 367 727T411 734Q447 734 454 715Q473 734 498 734Q522 734 534 718T546 665Q546 623 545 565T544 439T548 303T559 174T581 67T619
-1Q591 -23 554 -23Q521 -23 499 -5T465 59T448 182T443 378Q443 479 443 543T443 644H431Q333 499 272 392T182 208T153 83Q153 29 166 -1Q151 -13 136 -18T98 -23ZM136 194L149 253H495L484 194H136ZM445 769Q381 769 343 805T306 902Q307 953 330 992T393 1052T486
1074Q550 1074 588 1039T625 941Q625 891 602 852T539 791T445 769ZM452 825Q490 825 515 858T540 942Q540 1018 480 1018Q467 1018 457 1017T429 1011Q410 989 400 962T389 906Q389 871 406 848T452 825Z" />
<glyph unicode="&#xc6;" horiz-adv-x="834" d="M94 -29Q71 -29 61 -10T50 42Q50 84 71 147T135 291T238 470T380 676L350 707Q373 717 392 721T436 726Q460 726 472 716T490 682L468 644H456Q348 496 281 386T182 197T150 68Q150 47 152 28T166 -7Q147 -23 129
-26T94 -29ZM140 194L153 253H479L468 194H140ZM653 -25Q591 -25 529 -9T429 34L470 60H698Q728 63 751 68T797 82Q802 67 803 60T805 44Q805 7 769 -9T653 -25ZM444 -26Q414 -26 400 -10T386 42Q386 72 390 116T403 228T428 397T468 644L441 692Q467 708 492 717T538
726Q574 726 574 683Q574 677 570 646T557 567T540 462T522 345T504 231T492 136T487 74Q487 54 500 38T539 10Q487 -26 444 -26ZM623 288Q592 288 561 293T488 309L501 367Q533 363 567 362T640 360L709 377Q709 372 709 367T709 358Q709 324 687 306T623 288ZM750
604Q708 604 669 607T590 618T509 640L536 682Q603 682 652 687T749 700T853 720Q857 708 857 700T858 683Q858 652 842 635T801 611T750 604Z" />
<glyph unicode="&#xc7;" horiz-adv-x="650" d="M322 -25Q200 -25 130 49T60 256Q60 356 93 441T184 591T319 690T482 726Q548 726 585 706T623 649Q623 618 598 597T534 575Q497 575 462 590T403 653Q335 624 281 565T197 425T166 247Q166 148 205 92T315 36Q370
36 410 62T473 133T501 234Q533 234 552 220T571 171Q571 118 537 74T447 2T322 -25ZM210 -45Q156 -45 124 -22T92 39Q92 63 109 81T154 111T218 122Q196 111 183 91T170 50Q170 26 183 15T221 4Q255 4 278 28T302 85Q302 165 218 203Q301 203 347 171T393 83Q393
47 369 18T304 -28T210 -45Z" />
<glyph unicode="&#xc8;" horiz-adv-x="568" d="M178 -26Q148 -26 134 -10T120 42Q120 72 124 116T137 227T161 396T201 642L175 692Q201 708 226 717T272 726Q308 726 308 683Q308 677 304 646T291 567T274 462T256 345T238 231T226 136T221 74Q221 54 234 38T273
10Q221 -26 178 -26ZM387 -25Q325 -25 263 -9T163 34L204 60H432Q462 63 485 68T531 82Q536 67 537 60T539 44Q539 7 503 -9T387 -25ZM357 288Q326 288 295 293T222 309L235 367Q267 363 301 362T374 360L443 377Q443 372 443 367T443 358Q443 324 421 306T357
288ZM484 604Q442 604 403 607T324 618T243 640L270 682Q337 682 386 687T483 700T587 720Q591 708 591 700T592 683Q592 652 576 635T535 611T484 604ZM509 811Q496 811 471 821T413 844T340 867T260 877Q256 885 254 897T251 926Q251 981 302 981Q327 981 348
970T394 939T454 898T541 855Q537 833 529 822T509 811Z" />
<glyph unicode="&#xc9;" horiz-adv-x="568" d="M178 -26Q148 -26 134 -10T120 42Q120 72 124 116T137 227T161 396T201 642L175 692Q201 708 226 717T272 726Q308 726 308 683Q308 677 304 646T291 567T274 462T256 345T238 231T226 136T221 74Q221 54 234 38T273
10Q221 -26 178 -26ZM387 -25Q325 -25 263 -9T163 34L204 60H432Q462 63 485 68T531 82Q536 67 537 60T539 44Q539 7 503 -9T387 -25ZM357 288Q326 288 295 293T222 309L235 367Q267 363 301 362T374 360L443 377Q443 372 443 367T443 358Q443 324 421 306T357
288ZM484 604Q442 604 403 607T324 618T243 640L270 682Q337 682 386 687T483 700T587 720Q591 708 591 700T592 683Q592 652 576 635T535 611T484 604ZM317 810Q306 810 298 821T285 854Q338 875 372 897T432 938T478 968T524 980Q575 980 575 925Q575 909 573
897T566 876Q525 876 486 866T414 843T355 820T317 810Z" />
<glyph unicode="&#xca;" horiz-adv-x="568" d="M178 -26Q148 -26 134 -10T120 42Q120 72 124 116T137 227T161 396T201 642L175 692Q201 708 226 717T272 726Q308 726 308 683Q308 677 304 646T291 567T274 462T256 345T238 231T226 136T221 74Q221 54 234 38T273
10Q221 -26 178 -26ZM387 -25Q325 -25 263 -9T163 34L204 60H432Q462 63 485 68T531 82Q536 67 537 60T539 44Q539 7 503 -9T387 -25ZM357 288Q326 288 295 293T222 309L235 367Q267 363 301 362T374 360L443 377Q443 372 443 367T443 358Q443 324 421 306T357
288ZM484 604Q442 604 403 607T324 618T243 640L270 682Q337 682 386 687T483 700T587 720Q591 708 591 700T592 683Q592 652 576 635T535 611T484 604ZM331 799Q314 799 304 807T294 826Q294 852 311 885T353 949T403 1001Q420 1011 433 1017T481 1023Q504 1023
520 1013T539 976L544 883Q545 858 553 843T573 818Q556 808 542 804T511 799Q489 799 475 810T460 852Q460 888 462 919T472 976H458Q442 961 427 935T404 879T396 817Q393 810 374 805T331 799Z" />
<glyph unicode="&#xcb;" horiz-adv-x="568" d="M178 -26Q148 -26 134 -10T120 42Q120 72 124 116T137 227T161 396T201 642L175 692Q201 708 226 717T272 726Q308 726 308 683Q308 677 304 646T291 567T274 462T256 345T238 231T226 136T221 74Q221 54 234 38T273
10Q221 -26 178 -26ZM387 -25Q325 -25 263 -9T163 34L204 60H432Q462 63 485 68T531 82Q536 67 537 60T539 44Q539 7 503 -9T387 -25ZM357 288Q326 288 295 293T222 309L235 367Q267 363 301 362T374 360L443 377Q443 372 443 367T443 358Q443 324 421 306T357
288ZM484 604Q442 604 403 607T324 618T243 640L270 682Q337 682 386 687T483 700T587 720Q591 708 591 700T592 683Q592 652 576 635T535 611T484 604ZM541 828Q514 828 499 842T483 878Q483 894 491 909T516 934T558 945Q585 945 600 931T615 895Q615 867 595
848T541 828ZM287 828Q260 828 245 842T230 878Q230 894 238 909T263 934T304 945Q331 945 346 931T362 895Q362 877 353 862T327 837T287 828Z" />
<glyph unicode="&#xcc;" horiz-adv-x="369" d="M178 -25Q148 -25 134 -9T120 43Q120 74 124 118T137 230T161 398T201 642L175 692Q201 708 226 717T272 726Q308 726 308 683Q308 677 304 646T291 567T274 462T256 345T238 232T226 137T221 75Q221 50 227 30T243
-4Q209 -25 178 -25ZM375 811Q362 811 337 821T279 844T206 867T126 877Q122 885 120 897T117 926Q117 981 168 981Q193 981 214 970T260 939T320 898T407 855Q403 833 395 822T375 811Z" />
<glyph unicode="&#xcd;" horiz-adv-x="369" d="M178 -25Q148 -25 134 -9T120 43Q120 74 124 118T137 230T161 398T201 642L175 692Q201 708 226 717T272 726Q308 726 308 683Q308 677 304 646T291 567T274 462T256 345T238 232T226 137T221 75Q221 50 227 30T243
-4Q209 -25 178 -25ZM183 810Q172 810 164 821T151 854Q204 875 238 897T298 938T344 968T390 980Q441 980 441 925Q441 909 439 897T432 876Q391 876 352 866T280 843T221 820T183 810Z" />
<glyph unicode="&#xce;" horiz-adv-x="369" d="M178 -25Q148 -25 134 -9T120 43Q120 74 124 118T137 230T161 398T201 642L175 692Q201 708 226 717T272 726Q308 726 308 683Q308 677 304 646T291 567T274 462T256 345T238 232T226 137T221 75Q221 50 227 30T243
-4Q209 -25 178 -25ZM197 799Q180 799 170 807T160 826Q160 852 177 885T219 949T269 1001Q286 1011 299 1017T347 1023Q370 1023 386 1013T405 976L410 883Q411 858 419 843T439 818Q422 808 408 804T377 799Q355 799 341 810T326 852Q326 888 328 919T338 976H324Q308
961 293 935T270 879T262 817Q259 810 240 805T197 799Z" />
<glyph unicode="&#xcf;" horiz-adv-x="369" d="M178 -25Q148 -25 134 -9T120 43Q120 74 124 118T137 230T161 398T201 642L175 692Q201 708 226 717T272 726Q308 726 308 683Q308 677 304 646T291 567T274 462T256 345T238 232T226 137T221 75Q221 50 227 30T243
-4Q209 -25 178 -25ZM407 828Q380 828 365 842T349 878Q349 894 357 909T382 934T424 945Q451 945 466 931T481 895Q481 867 461 848T407 828ZM153 828Q126 828 111 842T96 878Q96 894 104 909T129 934T170 945Q197 945 212 931T228 895Q228 877 219 862T193 837T153
828Z" />
<glyph unicode="&#xd0;" horiz-adv-x="821" d="M331 -25Q223 -25 172 1T120 85Q120 111 124 155T138 266T162 426T198 642L172 692Q202 708 227 717T267 726Q304 726 304 683Q304 677 300 646T288 566T271 459T252 339T236 222T224 123T219 55Q251 46 280 42T345
38Q434 38 502 83T608 206T647 387Q647 521 595 590T442 659Q390 659 358 651T300 627T238 592V635Q270 656 301 677T372 712T473 726Q559 726 622 687T719 576T754 404Q754 308 724 230T637 94T503 6T331 -25ZM71 300Q45 300 35 311T24 342Q24 353 27 366T42 394Q62
387 94 386T149 384Q203 384 261 397T379 410Q406 410 415 398T425 368Q425 357 422 344T408 317Q389 323 358 325T305 327Q269 327 231 321T152 307T71 300Z" />
<glyph unicode="&#xd1;" horiz-adv-x="839" d="M648 -27Q618 -27 594 -20T548 10T503 75T453 190T389 368T305 624H263L271 726Q299 726 322 714T368 665T421 558T489 372T584 84L652 83L648 -27ZM178 -26Q148 -26 134 -10T120 42Q120 73 124 117T137 229T161
397T201 642L175 692Q201 708 226 717T272 726Q308 726 308 683Q308 677 304 646T291 567T274 462T256 345T238 231T226 136T221 74Q221 49 227 29T243 -5Q209 -26 178 -26ZM648 -27Q618 -27 604 -11T590 41Q590 72 594 116T607 229T631 397T671 642L640 692Q668
708 694 717T742 726Q778 726 778 683Q778 677 774 646T761 566T744 461T726 344T708 230T696 135T691 73Q691 49 697 29T713 -6Q695 -16 680 -21T648 -27ZM396 833Q363 833 354 844T344 878Q344 893 349 911T362 945Q376 941 390 938T421 934Q466 934 503 945T571
966T628 977Q662 977 671 966T680 932Q680 917 675 899T662 864Q649 868 634 871T603 875Q559 875 522 865T454 844T396 833Z" />
<glyph unicode="&#xd2;" horiz-adv-x="737" d="M334 -25Q251 -25 190 12T94 118T60 280Q60 384 90 466T173 606T295 694T440 725Q485 725 508 713T531 674Q531 665 530 658T524 642Q513 645 496 647T465 650Q383 650 316 606T208 480T167 286Q167 160 218 98T355
36Q397 36 441 57T523 120T589 218T626 346Q563 373 542 414T520 501Q520 532 531 556T563 595T610 610Q657 610 683 566T710 445Q710 346 682 261T604 112T484 11T334 -25ZM597 811Q584 811 559 821T501 844T428 867T348 877Q344 885 342 897T339 926Q339 981
390 981Q415 981 436 970T482 939T542 898T629 855Q625 833 617 822T597 811Z" />
<glyph unicode="&#xd3;" horiz-adv-x="737" d="M334 -25Q251 -25 190 12T94 118T60 280Q60 384 90 466T173 606T295 694T440 725Q485 725 508 713T531 674Q531 665 530 658T524 642Q513 645 496 647T465 650Q383 650 316 606T208 480T167 286Q167 160 218 98T355
36Q397 36 441 57T523 120T589 218T626 346Q563 373 542 414T520 501Q520 532 531 556T563 595T610 610Q657 610 683 566T710 445Q710 346 682 261T604 112T484 11T334 -25ZM405 810Q394 810 386 821T373 854Q426 875 460 897T520 938T566 968T612 980Q663 980
663 925Q663 909 661 897T654 876Q613 876 574 866T502 843T443 820T405 810Z" />
<glyph unicode="&#xd4;" horiz-adv-x="737" d="M334 -25Q251 -25 190 12T94 118T60 280Q60 384 90 466T173 606T295 694T440 725Q485 725 508 713T531 674Q531 665 530 658T524 642Q513 645 496 647T465 650Q383 650 316 606T208 480T167 286Q167 160 218 98T355
36Q397 36 441 57T523 120T589 218T626 346Q563 373 542 414T520 501Q520 532 531 556T563 595T610 610Q657 610 683 566T710 445Q710 346 682 261T604 112T484 11T334 -25ZM419 799Q402 799 392 807T382 826Q382 852 399 885T441 949T491 1001Q508 1011 521 1017T569
1023Q592 1023 608 1013T627 976L632 883Q633 858 641 843T661 818Q644 808 630 804T599 799Q577 799 563 810T548 852Q548 888 550 919T560 976H546Q530 961 515 935T492 879T484 817Q481 810 462 805T419 799Z" />
<glyph unicode="&#xd5;" horiz-adv-x="737" d="M334 -25Q251 -25 190 12T94 118T60 280Q60 384 90 466T173 606T295 694T440 725Q485 725 508 713T531 674Q531 665 530 658T524 642Q513 645 496 647T465 650Q383 650 316 606T208 480T167 286Q167 160 218 98T355
36Q397 36 441 57T523 120T589 218T626 346Q563 373 542 414T520 501Q520 532 531 556T563 595T610 610Q657 610 683 566T710 445Q710 346 682 261T604 112T484 11T334 -25ZM383 833Q350 833 341 844T331 878Q331 893 336 911T349 945Q363 941 377 938T408 934Q453
934 490 945T558 966T615 977Q649 977 658 966T667 932Q667 917 662 899T649 864Q636 868 621 871T590 875Q546 875 509 865T441 844T383 833Z" />
<glyph unicode="&#xd6;" horiz-adv-x="737" d="M334 -25Q251 -25 190 12T94 118T60 280Q60 384 90 466T173 606T295 694T440 725Q485 725 508 713T531 674Q531 665 530 658T524 642Q513 645 496 647T465 650Q383 650 316 606T208 480T167 286Q167 160 218 98T355
36Q397 36 441 57T523 120T589 218T626 346Q563 373 542 414T520 501Q520 532 531 556T563 595T610 610Q657 610 683 566T710 445Q710 346 682 261T604 112T484 11T334 -25ZM629 828Q602 828 587 842T571 878Q571 894 579 909T604 934T646 945Q673 945 688 931T703
895Q703 867 683 848T629 828ZM375 828Q348 828 333 842T318 878Q318 894 326 909T351 934T392 945Q419 945 434 931T450 895Q450 877 441 862T415 837T375 828Z" />
<glyph unicode="&#xd7;" horiz-adv-x="663" d="M191 164Q173 170 157 179T131 199T120 221Q120 230 127 242T154 270L501 588Q519 582 535 573T561 553T571 530Q571 521 564 509T537 481L191 164ZM451 164L183 499Q177 508 173 514T169 528Q169 541 180 550T208
569T241 588L509 253Q516 243 519 237T523 224Q523 210 512 200T485 182T451 164Z" />
<glyph unicode="&#xd8;" horiz-adv-x="737" d="M334 -25Q251 -25 190 12T94 118T60 280Q60 384 90 466T173 606T295 694T440 725Q485 725 508 713T531 674Q531 665 530 658T524 642Q513 645 496 647T465 650Q383 650 316 606T208 480T167 286Q167 160 218 98T355
36Q397 36 441 57T523 120T589 218T626 346Q563 373 542 414T520 501Q520 532 531 556T563 595T610 610Q657 610 683 566T710 445Q710 346 682 261T604 112T484 11T334 -25ZM289 -103Q278 -103 267 -100T245 -90Q295 63 349 271T467 764Q479 813 525 813Q536 813
547 810T568 800Q519 647 465 439T347 -54Q335 -103 289 -103Z" />
<glyph unicode="&#xd9;" horiz-adv-x="810" d="M619 -26Q595 -26 582 -11T565 27T560 76Q560 105 565 137T579 201L574 202Q545 146 500 95T397 11T268 -22Q223 -22 195 -6T150 35T127 89T120 145Q120 171 124 209T137 305T162 445T200 642L174 692Q194 706 221
716T269 727Q306 727 306 683Q306 676 300 642T283 556T262 447T240 332T223 232T216 167Q216 113 234 81T311 49Q354 49 407 83T509 178T591 321Q591 335 589 363T587 429Q587 461 588 500T594 580T612 653T647 706T705 727Q716 727 730 722T759 705Q745 656 729
581T697 417T672 237T662 64Q662 22 677 -5Q661 -16 647 -21T619 -26ZM602 811Q589 811 564 821T506 844T433 867T353 877Q349 885 347 897T344 926Q344 981 395 981Q420 981 441 970T487 939T547 898T634 855Q630 833 622 822T602 811Z" />
<glyph unicode="&#xda;" horiz-adv-x="810" d="M619 -26Q595 -26 582 -11T565 27T560 76Q560 105 565 137T579 201L574 202Q545 146 500 95T397 11T268 -22Q223 -22 195 -6T150 35T127 89T120 145Q120 171 124 209T137 305T162 445T200 642L174 692Q194 706 221
716T269 727Q306 727 306 683Q306 676 300 642T283 556T262 447T240 332T223 232T216 167Q216 113 234 81T311 49Q354 49 407 83T509 178T591 321Q591 335 589 363T587 429Q587 461 588 500T594 580T612 653T647 706T705 727Q716 727 730 722T759 705Q745 656 729
581T697 417T672 237T662 64Q662 22 677 -5Q661 -16 647 -21T619 -26ZM410 810Q399 810 391 821T378 854Q431 875 465 897T525 938T571 968T617 980Q668 980 668 925Q668 909 666 897T659 876Q618 876 579 866T507 843T448 820T410 810Z" />
<glyph unicode="&#xdb;" horiz-adv-x="810" d="M619 -26Q595 -26 582 -11T565 27T560 76Q560 105 565 137T579 201L574 202Q545 146 500 95T397 11T268 -22Q223 -22 195 -6T150 35T127 89T120 145Q120 171 124 209T137 305T162 445T200 642L174 692Q194 706 221
716T269 727Q306 727 306 683Q306 676 300 642T283 556T262 447T240 332T223 232T216 167Q216 113 234 81T311 49Q354 49 407 83T509 178T591 321Q591 335 589 363T587 429Q587 461 588 500T594 580T612 653T647 706T705 727Q716 727 730 722T759 705Q745 656 729
581T697 417T672 237T662 64Q662 22 677 -5Q661 -16 647 -21T619 -26ZM424 799Q407 799 397 807T387 826Q387 852 404 885T446 949T496 1001Q513 1011 526 1017T574 1023Q597 1023 613 1013T632 976L637 883Q638 858 646 843T666 818Q649 808 635 804T604 799Q582
799 568 810T553 852Q553 888 555 919T565 976H551Q535 961 520 935T497 879T489 817Q486 810 467 805T424 799Z" />
<glyph unicode="&#xdc;" horiz-adv-x="810" d="M619 -26Q595 -26 582 -11T565 27T560 76Q560 105 565 137T579 201L574 202Q545 146 500 95T397 11T268 -22Q223 -22 195 -6T150 35T127 89T120 145Q120 171 124 209T137 305T162 445T200 642L174 692Q194 706 221
716T269 727Q306 727 306 683Q306 676 300 642T283 556T262 447T240 332T223 232T216 167Q216 113 234 81T311 49Q354 49 407 83T509 178T591 321Q591 335 589 363T587 429Q587 461 588 500T594 580T612 653T647 706T705 727Q716 727 730 722T759 705Q745 656 729
581T697 417T672 237T662 64Q662 22 677 -5Q661 -16 647 -21T619 -26ZM634 828Q607 828 592 842T576 878Q576 894 584 909T609 934T651 945Q678 945 693 931T708 895Q708 867 688 848T634 828ZM380 828Q353 828 338 842T323 878Q323 894 331 909T356 934T397 945Q424
945 439 931T455 895Q455 877 446 862T420 837T380 828Z" />
<glyph unicode="&#xdd;" horiz-adv-x="781" d="M81 -242Q14 -242 -16 -218T-46 -157Q-46 -145 -42 -131T-32 -105Q-20 -117 -3 -131T42 -155T115 -165Q152 -165 203 -149T313 -96T426 0T527 143T600 341T627 599Q627 631 622 656T603 704Q634 719 647 722T677
726Q700 726 715 702T730 639Q730 553 715 464T671 289T601 124T505 -21T385 -137T243 -214T81 -242ZM409 -30Q344 -30 304 -6T241 62T209 160T196 277T192 402T186 522T165 627T118 704Q147 726 180 726Q227 726 252 696T287 615T299 500T301 369T305 237T326
122T375 41T468 11L409 -30ZM374 810Q363 810 355 821T342 854Q395 875 429 897T489 938T535 968T581 980Q632 980 632 925Q632 909 630 897T623 876Q582 876 543 866T471 843T412 820T374 810Z" />
<glyph unicode="&#xde;" horiz-adv-x="687" d="M384 111Q320 111 269 130T175 183L220 212Q246 193 279 185T345 176Q416 176 466 204T542 281T569 392Q569 437 555 475T505 538T408 562Q366 562 324 543T235 489V516Q266 548 297 574T368 615T464 630Q532 630
578 599T648 516T672 406Q672 348 655 295T603 201T513 135T384 111ZM178 -26Q148 -26 134 -10T120 42Q120 73 124 117T137 229T161 397T201 642L175 692Q201 708 226 717T272 726Q308 726 308 683Q308 677 304 646T291 567T274 462T256 345T238 231T226 136T221
74Q221 49 227 29T243 -5Q209 -26 178 -26Z" />
<glyph unicode="&#xdf;" horiz-adv-x="681" d="M139 -210Q113 -210 102 -191T90 -129Q90 -102 101 -20T134 191T183 485Q203 603 271 664T449 725Q511 725 557 707T630 656T656 579Q656 518 618 471T502 389Q543 378 574 350T624 282T642 197Q642 94 575 35T389
-25Q318 -25 279 -3T240 58Q240 75 251 92T281 123Q288 87 319 63T391 38Q436 38 470 59T525 118T545 203Q545 267 519 311T439 379Q477 398 504 426T547 488T563 557Q563 610 531 643T449 676Q400 676 368 655T313 582T272 442Q251 326 235 230T208 60T191 -62T185
-130Q185 -171 204 -187Q194 -197 176 -203T139 -210ZM112 329Q81 329 66 339T50 371Q50 397 67 422Q80 417 99 415T140 412Q163 412 181 414T225 421L238 347Q225 343 202 339T155 332T112 329Z" />
<glyph unicode="&#xe0;" horiz-adv-x="748" d="M266 -25Q212 -25 172 4T108 86T85 210Q85 291 114 362T196 486T317 570T465 600Q512 600 563 592Q569 582 572 573T575 554Q481 554 409 528T288 454T214 343T189 204Q189 131 219 91T304 50Q402 50 466 176T562
554Q570 563 583 569T609 575Q632 575 645 566T658 538Q658 504 646 452T618 335T589 195T577 40Q577 12 591 -2Q578 -15 566 -20T540 -25Q511 -25 495 -6T479 50Q479 64 481 80T487 116L477 121Q440 51 385 13T266 -25ZM538 676Q525 676 500 686T442 709T369 732T289
742Q285 750 283 762T280 791Q280 846 331 846Q356 846 377 835T423 804T483 763T570 720Q566 698 558 687T538 676Z" />
<glyph unicode="&#xe1;" horiz-adv-x="748" d="M266 -25Q212 -25 172 4T108 86T85 210Q85 291 114 362T196 486T317 570T465 600Q512 600 563 592Q569 582 572 573T575 554Q481 554 409 528T288 454T214 343T189 204Q189 131 219 91T304 50Q402 50 466 176T562
554Q570 563 583 569T609 575Q632 575 645 566T658 538Q658 504 646 452T618 335T589 195T577 40Q577 12 591 -2Q578 -15 566 -20T540 -25Q511 -25 495 -6T479 50Q479 64 481 80T487 116L477 121Q440 51 385 13T266 -25ZM346 675Q335 675 327 686T314 719Q367 740
401 762T461 803T507 833T553 845Q604 845 604 790Q604 774 602 762T595 741Q554 741 515 731T443 708T384 685T346 675Z" />
<glyph unicode="&#xe2;" horiz-adv-x="748" d="M266 -25Q212 -25 172 4T108 86T85 210Q85 291 114 362T196 486T317 570T465 600Q512 600 563 592Q569 582 572 573T575 554Q481 554 409 528T288 454T214 343T189 204Q189 131 219 91T304 50Q402 50 466 176T562
554Q570 563 583 569T609 575Q632 575 645 566T658 538Q658 504 646 452T618 335T589 195T577 40Q577 12 591 -2Q578 -15 566 -20T540 -25Q511 -25 495 -6T479 50Q479 64 481 80T487 116L477 121Q440 51 385 13T266 -25ZM360 664Q343 664 333 672T323 691Q323 717
340 750T382 814T432 866Q449 876 462 882T510 888Q533 888 549 878T568 841L573 748Q574 723 582 708T602 683Q585 673 571 669T540 664Q518 664 504 675T489 717Q489 753 491 784T501 841H487Q471 826 456 800T433 744T425 682Q422 675 403 670T360 664Z" />
<glyph unicode="&#xe3;" horiz-adv-x="748" d="M266 -25Q212 -25 172 4T108 86T85 210Q85 291 114 362T196 486T317 570T465 600Q512 600 563 592Q569 582 572 573T575 554Q481 554 409 528T288 454T214 343T189 204Q189 131 219 91T304 50Q402 50 466 176T562
554Q570 563 583 569T609 575Q632 575 645 566T658 538Q658 504 646 452T618 335T589 195T577 40Q577 12 591 -2Q578 -15 566 -20T540 -25Q511 -25 495 -6T479 50Q479 64 481 80T487 116L477 121Q440 51 385 13T266 -25ZM324 698Q291 698 282 709T272 743Q272 758
277 776T290 810Q304 806 318 803T349 799Q394 799 431 810T499 831T556 842Q590 842 599 831T608 797Q608 782 603 764T590 729Q577 733 562 736T531 740Q487 740 450 730T382 709T324 698Z" />
<glyph unicode="&#xe4;" horiz-adv-x="748" d="M266 -25Q212 -25 172 4T108 86T85 210Q85 291 114 362T196 486T317 570T465 600Q512 600 563 592Q569 582 572 573T575 554Q481 554 409 528T288 454T214 343T189 204Q189 131 219 91T304 50Q402 50 466 176T562
554Q570 563 583 569T609 575Q632 575 645 566T658 538Q658 504 646 452T618 335T589 195T577 40Q577 12 591 -2Q578 -15 566 -20T540 -25Q511 -25 495 -6T479 50Q479 64 481 80T487 116L477 121Q440 51 385 13T266 -25ZM570 693Q543 693 528 707T512 743Q512 759
520 774T545 799T587 810Q614 810 629 796T644 760Q644 732 624 713T570 693ZM316 693Q289 693 274 707T259 743Q259 759 267 774T292 799T333 810Q360 810 375 796T391 760Q391 742 382 727T356 702T316 693Z" />
<glyph unicode="&#xe5;" horiz-adv-x="748" d="M266 -25Q212 -25 172 4T108 86T85 210Q85 291 114 362T196 486T317 570T465 600Q512 600 563 592Q569 582 572 573T575 554Q481 554 409 528T288 454T214 343T189 204Q189 131 219 91T304 50Q402 50 466 176T562
554Q570 563 583 569T609 575Q632 575 645 566T658 538Q658 504 646 452T618 335T589 195T577 40Q577 12 591 -2Q578 -15 566 -20T540 -25Q511 -25 495 -6T479 50Q479 64 481 80T487 116L477 121Q440 51 385 13T266 -25ZM433 634Q369 634 331 670T294 767Q295 818
318 857T381 917T474 939Q538 939 576 904T613 806Q613 756 590 717T527 656T433 634ZM440 690Q478 690 503 723T528 807Q528 883 468 883Q455 883 445 882T417 876Q398 854 388 827T377 771Q377 736 394 713T440 690Z" />
<glyph unicode="&#xe6;" horiz-adv-x="1025" d="M266 -25Q212 -25 172 4T108 86T85 210Q85 286 114 352T196 468T317 546T465 575Q521 575 563 567Q569 559 572 550T575 529Q484 529 413 506T291 439T215 336T189 204Q189 131 219 91T304 50Q342 50 381 73T453
141T507 247L478 121H472Q435 51 382 13T266 -25ZM681 -25Q579 -25 522 40T465 218Q465 301 491 370T566 491T678 571T819 600Q895 600 937 563T980 458Q980 387 929 337T779 261T539 232L551 284Q709 281 798 329T888 467Q888 505 866 528T806 551Q758 551 715
525T640 452T589 344T570 211Q570 129 601 81T688 33Q756 33 799 75T847 187Q879 187 898 175T918 133Q918 93 887 57T803 -2T681 -25Z" />
<glyph unicode="&#xe7;" horiz-adv-x="616" d="M310 -25Q206 -25 146 38T86 213Q86 296 113 366T190 489T304 571T442 600Q499 600 531 583T564 533Q564 506 542 488T488 469Q457 469 427 482T377 536Q324 512 282 464T215 350T191 206Q191 125 221 79T306 33Q351
33 384 54T436 113T459 196Q491 196 510 184T530 141Q530 96 500 58T420 -2T310 -25ZM216 -45Q162 -45 130 -22T98 39Q98 63 115 81T160 111T224 122Q202 111 189 91T176 50Q176 26 189 15T227 4Q261 4 284 28T308 85Q308 165 224 203Q307 203 353 171T399 83Q399
47 375 18T310 -28T216 -45Z" />
<glyph unicode="&#xe8;" horiz-adv-x="647" d="M303 -25Q201 -25 144 40T87 218Q87 301 113 370T188 491T300 571T441 600Q517 600 559 563T602 458Q602 387 551 337T401 261T161 232L173 284Q331 281 420 329T510 467Q510 505 488 528T428 551Q380 551 337 525T262
452T211 344T192 211Q192 129 223 81T310 33Q378 33 421 75T469 187Q501 187 520 175T540 133Q540 93 509 57T425 -2T303 -25ZM523 676Q510 676 485 686T427 709T354 732T274 742Q270 750 268 762T265 791Q265 846 316 846Q341 846 362 835T408 804T468 763T555
720Q551 698 543 687T523 676Z" />
<glyph unicode="&#xe9;" horiz-adv-x="647" d="M303 -25Q201 -25 144 40T87 218Q87 301 113 370T188 491T300 571T441 600Q517 600 559 563T602 458Q602 387 551 337T401 261T161 232L173 284Q331 281 420 329T510 467Q510 505 488 528T428 551Q380 551 337 525T262
452T211 344T192 211Q192 129 223 81T310 33Q378 33 421 75T469 187Q501 187 520 175T540 133Q540 93 509 57T425 -2T303 -25ZM331 675Q320 675 312 686T299 719Q352 740 386 762T446 803T492 833T538 845Q589 845 589 790Q589 774 587 762T580 741Q539 741 500
731T428 708T369 685T331 675Z" />
<glyph unicode="&#xea;" horiz-adv-x="647" d="M303 -25Q201 -25 144 40T87 218Q87 301 113 370T188 491T300 571T441 600Q517 600 559 563T602 458Q602 387 551 337T401 261T161 232L173 284Q331 281 420 329T510 467Q510 505 488 528T428 551Q380 551 337 525T262
452T211 344T192 211Q192 129 223 81T310 33Q378 33 421 75T469 187Q501 187 520 175T540 133Q540 93 509 57T425 -2T303 -25ZM345 664Q328 664 318 672T308 691Q308 717 325 750T367 814T417 866Q434 876 447 882T495 888Q518 888 534 878T553 841L558 748Q559
723 567 708T587 683Q570 673 556 669T525 664Q503 664 489 675T474 717Q474 753 476 784T486 841H472Q456 826 441 800T418 744T410 682Q407 675 388 670T345 664Z" />
<glyph unicode="&#xeb;" horiz-adv-x="647" d="M303 -25Q201 -25 144 40T87 218Q87 301 113 370T188 491T300 571T441 600Q517 600 559 563T602 458Q602 387 551 337T401 261T161 232L173 284Q331 281 420 329T510 467Q510 505 488 528T428 551Q380 551 337 525T262
452T211 344T192 211Q192 129 223 81T310 33Q378 33 421 75T469 187Q501 187 520 175T540 133Q540 93 509 57T425 -2T303 -25ZM555 693Q528 693 513 707T497 743Q497 759 505 774T530 799T572 810Q599 810 614 796T629 760Q629 732 609 713T555 693ZM301 693Q274
693 259 707T244 743Q244 759 252 774T277 799T318 810Q345 810 360 796T376 760Q376 742 367 727T341 702T301 693Z" />
<glyph unicode="&#xec;" horiz-adv-x="388" d="M168 -25Q142 -25 128 -12T113 33Q113 53 117 86T131 176T159 318T204 525L163 566Q183 583 209 591T255 600Q281 600 293 590T305 550Q305 545 298 517T281 445T258 348T235 239T217 132T210 40Q210 24 213 14T224
-3Q199 -25 168 -25ZM357 676Q344 676 319 686T261 709T188 732T108 742Q104 750 102 762T99 791Q99 846 150 846Q175 846 196 835T242 804T302 763T389 720Q385 698 377 687T357 676Z" />
<glyph unicode="&#xed;" horiz-adv-x="388" d="M168 -25Q142 -25 128 -12T113 33Q113 53 117 86T131 176T159 318T204 525L163 566Q183 583 209 591T255 600Q281 600 293 590T305 550Q305 545 298 517T281 445T258 348T235 239T217 132T210 40Q210 24 213 14T224
-3Q199 -25 168 -25ZM165 675Q154 675 146 686T133 719Q186 740 220 762T280 803T326 833T372 845Q423 845 423 790Q423 774 421 762T414 741Q373 741 334 731T262 708T203 685T165 675Z" />
<glyph unicode="&#xee;" horiz-adv-x="388" d="M168 -25Q142 -25 128 -12T113 33Q113 53 117 86T131 176T159 318T204 525L163 566Q183 583 209 591T255 600Q281 600 293 590T305 550Q305 545 298 517T281 445T258 348T235 239T217 132T210 40Q210 24 213 14T224
-3Q199 -25 168 -25ZM179 664Q162 664 152 672T142 691Q142 717 159 750T201 814T251 866Q268 876 281 882T329 888Q352 888 368 878T387 841L392 748Q393 723 401 708T421 683Q404 673 390 669T359 664Q337 664 323 675T308 717Q308 753 310 784T320 841H306Q290
826 275 800T252 744T244 682Q241 675 222 670T179 664Z" />
<glyph unicode="&#xef;" horiz-adv-x="388" d="M168 -25Q142 -25 128 -12T113 33Q113 53 117 86T131 176T159 318T204 525L163 566Q183 583 209 591T255 600Q281 600 293 590T305 550Q305 545 298 517T281 445T258 348T235 239T217 132T210 40Q210 24 213 14T224
-3Q199 -25 168 -25ZM645 693Q618 693 603 707T587 743Q587 759 595 774T620 799T662 810Q689 810 704 796T719 760Q719 732 699 713T645 693ZM391 693Q364 693 349 707T334 743Q334 759 342 774T367 799T408 810Q435 810 450 796T466 760Q466 742 457 727T431
702T391 693Z" />
<glyph unicode="&#xf0;" horiz-adv-x="701" d="M316 -25Q247 -25 197 7T118 97T90 235Q90 315 114 382T182 498T286 573T418 600Q469 600 496 592Q508 574 510 554Q413 554 343 515T234 404T195 230Q195 138 233 86T340 33Q402 33 448 66T519 161T545 306Q545
410 520 494T451 639T348 731T222 763Q222 790 240 808T286 827Q341 827 392 802T488 733T564 629T615 499T634 354Q634 243 594 158T481 24T316 -25ZM593 709Q575 702 551 696T505 687T468 683L455 757Q481 760 498 764T538 777Q552 782 570 790T603 811Q621 799
627 788T637 769Q643 752 635 737T593 709Z" />
<glyph unicode="&#xf1;" horiz-adv-x="758" d="M172 -25Q145 -25 131 -12T116 33Q116 55 123 104T144 220T173 361T209 509L166 552Q187 573 216 584T264 596Q290 596 300 586T310 547Q310 521 302 487T277 422L287 417Q335 503 400 551T547 600Q613 600 645 567T677
464Q677 417 666 365T641 259T615 150T604 40Q604 11 615 -2Q592 -25 563 -25Q536 -25 522 -12T508 33Q508 74 517 129T540 242T562 352T572 442Q572 489 555 511T504 533Q455 533 411 505T331 427T269 314T228 181T213 40Q213 9 223 -2Q200 -25 172 -25ZM358 698Q325
698 316 709T306 743Q306 758 311 776T324 810Q338 806 352 803T383 799Q428 799 465 810T533 831T590 842Q624 842 633 831T642 797Q642 782 637 764T624 729Q611 733 596 736T565 740Q521 740 484 730T416 709T358 698Z" />
<glyph unicode="&#xf2;" horiz-adv-x="727" d="M322 -25Q252 -25 200 7T119 99T90 238Q90 318 115 384T186 499T294 573T433 600Q455 600 473 599T511 592Q518 584 521 575T525 554Q418 554 344 513T233 398T195 230Q195 141 229 87T327 33Q392 33 443 69T528
172T570 326Q528 354 510 385T491 456Q491 478 499 495T523 522T559 532Q602 532 625 492T649 380Q649 295 624 222T554 93T450 6T322 -25ZM531 676Q518 676 493 686T435 709T362 732T282 742Q278 750 276 762T273 791Q273 846 324 846Q349 846 370 835T416 804T476
763T563 720Q559 698 551 687T531 676Z" />
<glyph unicode="&#xf3;" horiz-adv-x="727" d="M322 -25Q252 -25 200 7T119 99T90 238Q90 318 115 384T186 499T294 573T433 600Q455 600 473 599T511 592Q518 584 521 575T525 554Q418 554 344 513T233 398T195 230Q195 141 229 87T327 33Q392 33 443 69T528
172T570 326Q528 354 510 385T491 456Q491 478 499 495T523 522T559 532Q602 532 625 492T649 380Q649 295 624 222T554 93T450 6T322 -25ZM339 675Q328 675 320 686T307 719Q360 740 394 762T454 803T500 833T546 845Q597 845 597 790Q597 774 595 762T588 741Q547
741 508 731T436 708T377 685T339 675Z" />
<glyph unicode="&#xf4;" horiz-adv-x="727" d="M322 -25Q252 -25 200 7T119 99T90 238Q90 318 115 384T186 499T294 573T433 600Q455 600 473 599T511 592Q518 584 521 575T525 554Q418 554 344 513T233 398T195 230Q195 141 229 87T327 33Q392 33 443 69T528
172T570 326Q528 354 510 385T491 456Q491 478 499 495T523 522T559 532Q602 532 625 492T649 380Q649 295 624 222T554 93T450 6T322 -25ZM353 664Q336 664 326 672T316 691Q316 717 333 750T375 814T425 866Q442 876 455 882T503 888Q526 888 542 878T561 841L566
748Q567 723 575 708T595 683Q578 673 564 669T533 664Q511 664 497 675T482 717Q482 753 484 784T494 841H480Q464 826 449 800T426 744T418 682Q415 675 396 670T353 664Z" />
<glyph unicode="&#xf5;" horiz-adv-x="727" d="M322 -25Q252 -25 200 7T119 99T90 238Q90 318 115 384T186 499T294 573T433 600Q455 600 473 599T511 592Q518 584 521 575T525 554Q418 554 344 513T233 398T195 230Q195 141 229 87T327 33Q392 33 443 69T528
172T570 326Q528 354 510 385T491 456Q491 478 499 495T523 522T559 532Q602 532 625 492T649 380Q649 295 624 222T554 93T450 6T322 -25ZM317 698Q284 698 275 709T265 743Q265 758 270 776T283 810Q297 806 311 803T342 799Q387 799 424 810T492 831T549 842Q583
842 592 831T601 797Q601 782 596 764T583 729Q570 733 555 736T524 740Q480 740 443 730T375 709T317 698Z" />
<glyph unicode="&#xf6;" horiz-adv-x="727" d="M322 -25Q252 -25 200 7T119 99T90 238Q90 318 115 384T186 499T294 573T433 600Q455 600 473 599T511 592Q518 584 521 575T525 554Q418 554 344 513T233 398T195 230Q195 141 229 87T327 33Q392 33 443 69T528
172T570 326Q528 354 510 385T491 456Q491 478 499 495T523 522T559 532Q602 532 625 492T649 380Q649 295 624 222T554 93T450 6T322 -25ZM563 693Q536 693 521 707T505 743Q505 759 513 774T538 799T580 810Q607 810 622 796T637 760Q637 732 617 713T563 693ZM309
693Q282 693 267 707T252 743Q252 759 260 774T285 799T326 810Q353 810 368 796T384 760Q384 742 375 727T349 702T309 693Z" />
<glyph unicode="&#xf7;" horiz-adv-x="700" d="M197 321Q166 321 154 329T142 357Q142 370 146 386T158 424H531Q562 424 573 417T585 389Q585 363 569 321H197ZM404 535Q378 535 360 552T342 595Q342 615 351 631T376 658T414 668Q441 668 458 651T476 608Q476
589 467 573T441 546T404 535ZM331 78Q305 78 287 95T269 138Q269 158 278 174T303 201T341 211Q368 211 385 194T403 151Q403 132 394 116T368 89T331 78Z" />
<glyph unicode="&#xf8;" horiz-adv-x="727" d="M322 -25Q252 -25 200 7T119 99T90 238Q90 318 115 384T186 499T294 573T433 600Q455 600 473 599T511 592Q518 584 521 575T525 554Q418 554 344 513T233 398T195 230Q195 141 229 87T327 33Q392 33 443 69T528
172T570 326Q528 354 510 385T491 456Q491 478 499 495T523 522T559 532Q602 532 625 492T649 380Q649 295 624 222T554 93T450 6T322 -25ZM279 -78Q270 -78 261 -76T244 -68Q284 55 327 221T421 616Q431 655 468 655Q476 655 485 653T502 644Q463 522 420 356T325
-39Q316 -78 279 -78Z" />
<glyph unicode="&#xf9;" horiz-adv-x="737" d="M266 -25Q184 -25 145 15T105 137Q105 182 113 231T131 330T149 424T157 505Q157 525 155 543T148 578Q163 588 179 594T206 600Q232 600 244 586T257 537Q257 515 251 477T235 394T217 303T201 220T194 162Q194
101 221 69T297 37Q359 37 411 83T493 212L480 62L450 78Q430 48 399 25T332 -12T266 -25ZM515 -25Q487 -25 474 -4T460 63Q460 91 469 145T497 288T547 512L510 566Q515 574 530 582T566 595T602 600Q629 600 640 589T652 550Q652 545 645 517T628 445T605 348T582
239T564 132T557 40Q557 9 571 -3Q548 -25 515 -25ZM532 676Q519 676 494 686T436 709T363 732T283 742Q279 750 277 762T274 791Q274 846 325 846Q350 846 371 835T417 804T477 763T564 720Q560 698 552 687T532 676Z" />
<glyph unicode="&#xfa;" horiz-adv-x="737" d="M266 -25Q184 -25 145 15T105 137Q105 182 113 231T131 330T149 424T157 505Q157 525 155 543T148 578Q163 588 179 594T206 600Q232 600 244 586T257 537Q257 515 251 477T235 394T217 303T201 220T194 162Q194
101 221 69T297 37Q359 37 411 83T493 212L480 62L450 78Q430 48 399 25T332 -12T266 -25ZM515 -25Q487 -25 474 -4T460 63Q460 91 469 145T497 288T547 512L510 566Q515 574 530 582T566 595T602 600Q629 600 640 589T652 550Q652 545 645 517T628 445T605 348T582
239T564 132T557 40Q557 9 571 -3Q548 -25 515 -25ZM340 675Q329 675 321 686T308 719Q361 740 395 762T455 803T501 833T547 845Q598 845 598 790Q598 774 596 762T589 741Q548 741 509 731T437 708T378 685T340 675Z" />
<glyph unicode="&#xfb;" horiz-adv-x="737" d="M266 -25Q184 -25 145 15T105 137Q105 182 113 231T131 330T149 424T157 505Q157 525 155 543T148 578Q163 588 179 594T206 600Q232 600 244 586T257 537Q257 515 251 477T235 394T217 303T201 220T194 162Q194
101 221 69T297 37Q359 37 411 83T493 212L480 62L450 78Q430 48 399 25T332 -12T266 -25ZM515 -25Q487 -25 474 -4T460 63Q460 91 469 145T497 288T547 512L510 566Q515 574 530 582T566 595T602 600Q629 600 640 589T652 550Q652 545 645 517T628 445T605 348T582
239T564 132T557 40Q557 9 571 -3Q548 -25 515 -25ZM354 664Q337 664 327 672T317 691Q317 717 334 750T376 814T426 866Q443 876 456 882T504 888Q527 888 543 878T562 841L567 748Q568 723 576 708T596 683Q579 673 565 669T534 664Q512 664 498 675T483 717Q483
753 485 784T495 841H481Q465 826 450 800T427 744T419 682Q416 675 397 670T354 664Z" />
<glyph unicode="&#xfc;" horiz-adv-x="737" d="M266 -25Q184 -25 145 15T105 137Q105 182 113 231T131 330T149 424T157 505Q157 525 155 543T148 578Q163 588 179 594T206 600Q232 600 244 586T257 537Q257 515 251 477T235 394T217 303T201 220T194 162Q194
101 221 69T297 37Q359 37 411 83T493 212L480 62L450 78Q430 48 399 25T332 -12T266 -25ZM515 -25Q487 -25 474 -4T460 63Q460 91 469 145T497 288T547 512L510 566Q515 574 530 582T566 595T602 600Q629 600 640 589T652 550Q652 545 645 517T628 445T605 348T582
239T564 132T557 40Q557 9 571 -3Q548 -25 515 -25ZM564 693Q537 693 522 707T506 743Q506 759 514 774T539 799T581 810Q608 810 623 796T638 760Q638 732 618 713T564 693ZM310 693Q283 693 268 707T253 743Q253 759 261 774T286 799T327 810Q354 810 369 796T385
760Q385 742 376 727T350 702T310 693Z" />
<glyph unicode="&#xfd;" horiz-adv-x="654" d="M56 -200Q-4 -200 -30 -179T-57 -127Q-57 -116 -53 -103T-44 -80Q-33 -91 -19 -103T21 -123T85 -131Q117 -131 162 -118T257 -75T355 4T443 126T505 298T529 525Q529 537 529 553T527 580Q551 593 561 596T587 600Q601
600 613 590T626 547Q626 464 609 377T557 206T473 49T361 -80T221 -168T56 -200ZM339 -25Q274 -25 237 1T182 71T158 171T151 287T147 403T130 506T85 580Q111 600 141 600Q183 600 205 575T237 508T247 414T249 306T253 198T270 104T313 37T394 12L339 -25ZM296
675Q285 675 277 686T264 719Q317 740 351 762T411 803T457 833T503 845Q554 845 554 790Q554 774 552 762T545 741Q504 741 465 731T393 708T334 685T296 675Z" />
<glyph unicode="&#xfe;" horiz-adv-x="741" d="M278 0Q225 0 179 8Q173 18 170 27T167 46Q285 46 371 86T506 199T554 371Q554 445 524 485T438 526Q383 526 338 476T257 329T190 89L221 474L265 434Q303 514 358 557T476 600Q531 600 571 571T634 489T657 365Q657
289 628 223T546 107T426 29T278 0ZM129 -200Q107 -200 93 -185T79 -137Q79 -120 84 -73T99 42T121 192T148 362T177 536T206 697L165 740Q185 757 213 766T262 775Q285 775 295 764T306 724Q306 690 297 633T272 504T240 351T208 186T184 22T174 -129Q174 -139
178 -154T192 -177Q181 -187 166 -193T129 -200Z" />
<glyph unicode="&#xff;" horiz-adv-x="654" d="M56 -200Q-4 -200 -30 -179T-57 -127Q-57 -116 -53 -103T-44 -80Q-33 -91 -19 -103T21 -123T85 -131Q117 -131 162 -118T257 -75T355 4T443 126T505 298T529 525Q529 537 529 553T527 580Q551 593 561 596T587 600Q601
600 613 590T626 547Q626 464 609 377T557 206T473 49T361 -80T221 -168T56 -200ZM339 -25Q274 -25 237 1T182 71T158 171T151 287T147 403T130 506T85 580Q111 600 141 600Q183 600 205 575T237 508T247 414T249 306T253 198T270 104T313 37T394 12L339 -25ZM520
693Q493 693 478 707T462 743Q462 759 470 774T495 799T537 810Q564 810 579 796T594 760Q594 732 574 713T520 693ZM266 693Q239 693 224 707T209 743Q209 759 217 774T242 799T283 810Q310 810 325 796T341 760Q341 742 332 727T306 702T266 693Z" />
<glyph unicode="&#x2013;" horiz-adv-x="655" d="M104 236Q70 236 57 244T44 276Q44 291 48 308T60 344Q73 337 102 332T171 327Q202 327 247 332T344 343T450 354T553 359Q587 359 600 350T613 318Q613 303 609 287T597 250Q585 257 556 262T486 267Q455 267
410 263T313 252T208 241T104 236Z" />
<glyph unicode="&#x2014;" horiz-adv-x="798" d="M98 236Q67 236 55 243T43 271Q43 285 47 303T60 344Q79 337 115 332T200 327Q242 327 301 332T429 343T568 354T702 359Q733 359 745 352T757 324Q757 310 753 292T740 250Q720 258 684 262T599 267Q557 267 498
263T371 252T232 241T98 236Z" />
<glyph unicode="&#x2018;" horiz-adv-x="319" d="M272 753L283 724Q261 712 245 693T220 651T211 612L257 551Q256 530 245 513T214 484T173 473Q139 473 121 496T102 548Q102 597 123 636T182 704T272 753Z" />
<glyph unicode="&#x2019;" horiz-adv-x="349" d="M135 474L124 503Q146 515 162 534T187 576T196 615L150 676Q151 697 162 714T193 743T234 754Q268 754 286 731T305 679Q305 630 284 591T225 523T135 474Z" />
<glyph unicode="&#x201a;" horiz-adv-x="334" d="M68 -172L57 -143Q79 -131 95 -112T120 -70T129 -31L83 30Q84 51 95 68T126 97T167 108Q201 108 219 85T238 33Q238 -16 217 -55T158 -123T68 -172Z" />
<glyph unicode="&#x201c;" horiz-adv-x="528" d="M272 753L283 724Q261 712 245 693T220 651T211 612L257 551Q256 530 245 513T214 484T173 473Q139 473 121 496T102 548Q102 597 123 636T182 704T272 753ZM481 753L492 724Q470 712 454 693T429 651T420 612L466
551Q465 530 454 513T423 484T382 473Q348 473 330 496T311 548Q311 597 332 636T391 704T481 753Z" />
<glyph unicode="&#x201d;" horiz-adv-x="558" d="M344 474L333 503Q355 515 371 534T396 576T405 615L359 676Q360 697 371 714T402 743T443 754Q477 754 495 731T514 679Q514 630 493 591T434 523T344 474ZM135 474L124 503Q146 515 162 534T187 576T196 615L150
676Q151 697 162 714T193 743T234 754Q268 754 286 731T305 679Q305 630 284 591T225 523T135 474Z" />
<glyph unicode="&#x201e;" horiz-adv-x="543" d="M68 -172L57 -143Q79 -131 95 -112T120 -70T129 -31L83 30Q84 51 95 68T126 97T167 108Q201 108 219 85T238 33Q238 -16 217 -55T158 -123T68 -172ZM277 -172L266 -143Q288 -131 304 -112T329 -70T338 -31L292
30Q293 51 304 68T335 97T376 108Q410 108 428 85T447 33Q447 -16 426 -55T367 -123T277 -172Z" />
<glyph unicode="&#x2022;" horiz-adv-x="388" d="M164 235Q133 235 112 256T90 307Q90 331 101 351T131 383T176 395Q209 395 230 375T251 323Q251 300 240 280T208 248T164 235Z" />
<glyph unicode="&#x2039;" horiz-adv-x="378" d="M225 25Q199 57 171 95T117 170T77 238T61 288Q61 312 69 332T101 378T172 444T296 549Q294 549 305 547T327 534T339 501Q339 483 321 460T270 411T197 357T110 300Q166 243 203 205T259 138T278 78Q278 57 272
46T254 30T225 25Z" />
<glyph unicode="&#x203a;" horiz-adv-x="378" d="M151 549Q177 517 205 479T259 404T299 336T315 286Q315 262 307 242T275 196T204 130T80 25Q82 25 71 27T49 40T37 73Q37 91 55 114T106 163T179 217T266 274Q210 331 173 369T117 436T98 496Q98 517 104 528T122
544T151 549Z" />
</font>
</defs>
</svg>
