<?xml version="1.0" standalone="no"?>
<!DOCTYPE svg PUBLIC "-//W3C//DTD SVG 1.1//EN" "http://www.w3.org/Graphics/SVG/1.1/DTD/svg11.dtd">
<svg xmlns="http://www.w3.org/2000/svg">
<defs >
<font id="Almarai" horiz-adv-x="599" ><font-face
    font-family="Almarai Light"
    units-per-em="1000"
    panose-1="0 0 0 0 0 0 0 0 0 0"
    ascent="905"
    descent="-211"
    alphabetic="0" />
<glyph unicode=" " glyph-name="space" horiz-adv-x="184" />
<glyph unicode="!" glyph-name="exclam" horiz-adv-x="176" d="M122 716V200L88 172H54V716H122ZM89 70Q104 70 115 59T126 33Q126 17 115 6T89 -5Q73 -5 62 6T51 33Q51 48 62 59T89 70Z" />
<glyph unicode="&quot;" glyph-name="quotedbl" horiz-adv-x="294" d="M117 716V507L95 488H69V716H117ZM225 716V507L202 488H176V716H225Z" />
<glyph unicode="#" glyph-name="numbersign" horiz-adv-x="610" d="M497 672L457 457H589V411H449L416 255H557V209H408L368 0H301L341 209H218L178 0H114L152 209H21V255H160L193 411H54V457H201L240 672H306L267 457H392L433 672H497ZM383 411H259L226 255H351L383
411Z" />
<glyph unicode="$" glyph-name="dollar" horiz-adv-x="553" d="M308 716V629Q370 620 433 596V548Q371 577 308 581V358Q385 332 419 301Q461 264 461 203Q461 142 419 104Q380 69 308 57V-55H250V53Q239 53 229 53Q171 53 116 66L92 96V119Q132 98 235 98Q245
98 250 99V326Q169 352 136 383Q98 419 98 486Q98 543 138 581Q178 618 250 628V716H308ZM250 376V580Q198 573 171 543Q150 518 150 482Q150 442 172 418Q195 393 250 376ZM308 305V105Q368 115 394 151Q409 175 409 204Q409 240 387 264Q364 287 308 305Z" />
<glyph unicode="%" glyph-name="percent" horiz-adv-x="696" d="M157 679Q209 679 243 644Q299 588 299 461Q299 375 274 324Q239 251 159 251Q88 251 52 307Q18 360 18 459Q18 583 71 642Q106 679 157 679ZM581 673L184 0H131L527 673H581ZM157 634Q123 634 101
615Q61 578 61 460Q61 379 82 340Q106 296 157 296Q211 296 235 340Q257 380 257 460Q257 580 215 615Q193 634 157 634ZM535 425Q587 425 621 391Q677 334 677 207Q677 121 652 70Q617 -3 537 -3Q466 -3 430 53Q396 106 396 205Q396 330 449 389Q484 425 535 425ZM535
381Q501 381 479 361Q439 324 439 206Q439 125 460 86Q484 42 535 42Q589 42 613 87Q635 126 635 206Q635 326 593 361Q571 381 535 381Z" />
<glyph unicode="&amp;" glyph-name="ampersand" horiz-adv-x="655" d="M536 322H604Q603 245 546 140L663 0H583L509 87Q418 -11 289 -11Q189 -11 131 51Q74 111 74 206Q74 278 110 328T230 423L221 435Q184 485 173 512T161 573Q161 636 206 678T320 720Q384
720 425 680T467 578Q467 472 329 405L503 193Q534 263 536 322ZM292 449Q297 452 303 455Q399 501 399 576Q399 612 376 635T316 659Q279 659 254 635T229 575Q229 530 292 449ZM268 376Q145 315 145 205Q145 137 187 94T297 50Q393 50 467 137L268 376Z" />
<glyph unicode="&apos;" glyph-name="quotesingle" horiz-adv-x="186" d="M117 716V507L95 488H69V716H117Z" />
<glyph unicode="(" glyph-name="parenleft" horiz-adv-x="297" d="M235 716L251 704Q188 622 154 499Q127 407 127 302Q127 191 161 87Q192 -11 251 -95L235 -106H213Q143 -26 108 82Q74 185 74 301Q74 418 108 523Q143 633 213 716H235Z" />
<glyph unicode=")" glyph-name="parenright" horiz-adv-x="297" d="M62 716H85Q154 633 190 523Q223 419 223 301Q223 185 190 82Q154 -26 85 -106H62L46 -95Q105 -11 137 87Q170 191 170 302Q170 407 144 499Q109 623 46 704L62 716Z" />
<glyph unicode="*" glyph-name="asterisk" horiz-adv-x="402" d="M229 716L227 598L338 637L356 583L242 549L314 455L268 422L201 519L134 422L88 455L160 549L47 583L64 637L176 598L173 716H229Z" />
<glyph unicode="+" glyph-name="plus" horiz-adv-x="511" d="M282 10H229V191H46V245H229V429H282V245H465V191H282V10Z" />
<glyph unicode="," glyph-name="comma" horiz-adv-x="183" d="M95 -8Q91 -9 87 -9Q51 -9 51 29Q51 69 88 69Q134 69 134 2Q134 -71 77 -134H58L43 -122Q68 -94 84 -56Q95 -26 95 -8Z" />
<glyph unicode="-" glyph-name="hyphen" horiz-adv-x="321" d="M284 244V191H37V244H284Z" />
<glyph unicode="." glyph-name="period" horiz-adv-x="176" d="M89 70Q104 70 115 59T126 33Q126 17 115 6T89 -5Q73 -5 62 6T51 33Q51 48 62 59T89 70Z" />
<glyph unicode="/" glyph-name="slash" horiz-adv-x="326" d="M317 673L66 0H9L260 673H317Z" />
<glyph unicode="0" glyph-name="zero" horiz-adv-x="510" d="M37 350Q37 512 82 608Q137 728 255 728Q388 728 441 578Q473 487 473 350Q473 196 427 101Q371 -13 256 -13Q125 -13 71 130Q37 219 37 350ZM414 354Q414 497 388 568Q351 673 255 673Q171 673 134
599T97 353Q97 215 123 145Q161 44 254 44Q337 44 375 119T414 354Z" />
<glyph unicode="1" glyph-name="one" horiz-adv-x="324" d="M255 716V25L225 0H197V636L67 529L32 576L198 716H255Z" />
<glyph unicode="2" glyph-name="two" horiz-adv-x="472" d="M76 664Q179 726 243 726Q253 726 265 725Q377 715 419 621Q436 583 436 539Q436 459 384 386Q342 326 271 243L177 135L107 53H440V29L416 0H32V53L135 173L234 289Q305 373 339 422Q379 479 379 542Q379
572 368 596Q341 659 268 669Q255 671 243 671Q183 671 108 616L76 664Z" />
<glyph unicode="3" glyph-name="three" horiz-adv-x="452" d="M87 708Q151 725 193 725Q287 725 341 672Q390 622 390 541Q390 420 286 373Q356 351 390 295Q420 247 420 186Q420 84 346 31Q288 -11 199 -11Q144 -11 83 5L55 42V65Q139 42 193 42Q271 42 316 78Q361
115 362 181Q362 241 327 282Q297 317 254 333T133 352V404H197Q257 404 294 439T332 530Q332 593 291 629T179 666Q142 666 87 652V708Z" />
<glyph unicode="4" glyph-name="four" horiz-adv-x="526" d="M384 716V234H503V181H384V25L355 0H325V181H23V242L312 716H384ZM325 635L85 234H325V635Z" />
<glyph unicode="5" glyph-name="five" horiz-adv-x="452" d="M367 716V667H124L110 416Q165 425 197 425Q307 425 365 359Q416 301 416 204Q416 96 346 40Q288 -6 193 -6Q138 -6 77 9L49 47V70Q134 48 186 48Q359 48 359 207Q359 373 179 373Q135 373 48 356L67 716H367Z" />
<glyph unicode="6" glyph-name="six" horiz-adv-x="498" d="M119 364Q191 437 273 437Q365 437 420 363Q465 303 465 222Q465 114 401 47Q342 -14 250 -14Q52 -14 52 288V313Q52 363 67 433T104 554Q178 728 343 728Q359 728 386 725L410 693V671Q382 678 359
678Q235 678 174 562Q137 491 119 364ZM273 383Q218 383 172 344T121 254Q119 238 119 221Q119 139 155 90Q192 40 259 40Q335 40 375 102Q407 149 407 218Q407 290 370 336T273 383Z" />
<glyph unicode="7" glyph-name="seven" horiz-adv-x="481" d="M451 716V666L204 45L152 0H125L394 663H30V716H451Z" />
<glyph unicode="8" glyph-name="eight" horiz-adv-x="519" d="M213 368Q79 457 79 572Q79 655 139 696Q187 728 260 728Q344 728 393 687Q440 646 440 576Q440 513 411 467T310 371Q477 293 477 161Q477 72 398 24Q338 -12 257 -12Q159 -12 100 35Q41 82 41 163Q41
229 86 283T213 368ZM261 391Q383 464 383 576Q383 623 349 653T260 682Q205 682 171 651T137 569Q137 459 261 391ZM261 354Q175 313 141 273T107 171Q107 110 147 76T260 42Q331 42 373 76T415 170Q415 228 380 269T261 354Z" />
<glyph unicode="9" glyph-name="nine" horiz-adv-x="498" d="M391 359Q332 279 239 279Q137 279 82 352Q37 412 37 503Q37 609 101 671Q159 726 250 726Q393 726 435 587Q456 517 456 360Q456 179 404 93Q342 -9 197 -9Q168 -9 123 -4L95 33V57Q150 43 185 43Q317
43 363 148Q391 213 391 341Q391 353 391 359ZM388 487Q388 673 249 673Q173 674 130 616Q95 569 95 502Q95 425 136 377Q176 331 240 331Q305 331 346 375T388 487Z" />
<glyph unicode=":" glyph-name="colon" horiz-adv-x="177" d="M89 257Q104 257 115 246T126 220Q126 204 115 193T89 182Q73 182 62 193T51 220Q51 235 62 246T89 257ZM89 70Q105 70 115 59T126 33Q126 17 116 6T89 -5Q73 -5 62 6T51 33Q51 48 62 59T89 70Z" />
<glyph unicode=";" glyph-name="semicolon" horiz-adv-x="183" d="M95 -8Q91 -9 87 -9Q51 -9 51 29Q51 69 88 69Q134 69 134 2Q134 -71 77 -134H58L43 -122Q68 -94 84 -56Q95 -26 95 -8ZM88 182Q72 182 61 193T50 220Q50 236 61 246T88 257Q103 257 114 247T125
220Q125 204 114 193T88 182Z" />
<glyph unicode="&lt;" glyph-name="less" horiz-adv-x="502" d="M460 565V507L107 331L460 177V118L41 310V347L460 565Z" />
<glyph unicode="=" glyph-name="equal" horiz-adv-x="511" d="M465 344V291H46V344H465ZM465 151V97H46V151H465Z" />
<glyph unicode="&gt;" glyph-name="greater" horiz-adv-x="502" d="M41 565L460 347V310L41 118V177L395 331L41 507V565Z" />
<glyph unicode="?" glyph-name="question" horiz-adv-x="503" d="M283 179H219Q218 194 218 202Q218 263 237 303T307 387Q362 437 380 466T399 536Q399 594 360 631T260 669Q210 669 172 642T119 570Q110 542 110 495H39Q39 504 39 510Q39 617 108 678Q168 730
264 730Q363 730 421 671Q471 620 471 541Q471 492 451 455T377 368Q311 308 300 287Q282 253 282 198Q282 193 283 179ZM252 85Q267 85 278 74T289 47Q289 32 278 21T252 10Q214 10 214 45Q214 61 225 73T252 85Z" />
<glyph unicode="@" glyph-name="at" horiz-adv-x="801" d="M457 -50Q421 -55 387 -55Q218 -55 125 60Q46 157 46 306Q46 473 158 584Q258 683 400 683Q570 683 668 576Q755 482 755 335Q755 235 713 169Q668 100 588 100Q533 100 512 129Q468 99 408 99Q327 99
277 149Q222 203 222 292Q222 387 273 444Q322 498 402 498Q464 498 505 473L537 499H556V177Q556 157 601 157Q643 157 670 204T697 325Q697 472 607 553Q528 624 400 624Q277 624 191 539Q101 448 101 311Q101 155 193 69Q275 -6 408 -6Q443 -6 480 -1V-22L457
-50ZM505 434Q461 452 420 452Q356 452 316 409T275 297Q275 227 311 187T411 146Q468 146 505 180V434Z" />
<glyph unicode="A" glyph-name="A" horiz-adv-x="663" d="M487 226H172L87 0H14L291 716H366L648 0H574L487 226ZM464 283L326 642L193 283H464Z" />
<glyph unicode="B" glyph-name="B" horiz-adv-x="672" d="M86 0V716H376Q483 716 535 671Q590 623 590 537Q590 425 489 380Q622 339 622 203Q622 105 559 50Q502 0 380 0H86ZM154 400H368Q453 400 490 440Q522 474 522 528Q522 581 490 615Q453 655 368 655H154V400ZM154
61H388Q552 61 552 202Q552 343 388 343H154V61Z" />
<glyph unicode="C" glyph-name="C" horiz-adv-x="715" d="M665 513H590Q572 587 515 629T377 671Q253 671 186 575Q127 491 127 355Q127 203 203 118Q269 45 375 45Q473 45 536 109Q591 165 604 257H674Q661 165 619 106Q535 -16 373 -16Q217 -16 131 98Q56 197
56 358Q56 543 155 644Q240 732 380 732Q498 732 576 666Q644 608 665 513Z" />
<glyph unicode="D" glyph-name="D" horiz-adv-x="712" d="M86 0V716H347Q521 716 593 605Q656 508 656 360Q656 202 582 102Q542 48 484 24T332 0H86ZM157 61H316Q400 61 446 79T527 142Q585 222 585 358Q585 513 522 588Q466 655 343 655H157V61Z" />
<glyph unicode="E" glyph-name="E" horiz-adv-x="618" d="M564 716V655H157V396H531V339H157V61H574V0H86V716H564Z" />
<glyph unicode="F" glyph-name="F" horiz-adv-x="566" d="M540 716V655H157V400H492V339H157V0H86V716H540Z" />
<glyph unicode="G" glyph-name="G" horiz-adv-x="760" d="M382 365H684V0H627V119Q533 -16 380 -16Q223 -16 134 99Q56 199 56 356Q56 539 160 642Q250 732 391 732Q516 732 594 664Q661 604 677 504H608Q590 584 534 627T392 671Q264 671 191 575Q127 491 127
360Q127 209 208 121Q278 45 384 45Q449 45 502 75T585 158Q617 218 622 308H382V365Z" />
<glyph unicode="H" glyph-name="H" horiz-adv-x="707" d="M550 349H157V0H86V716H157V410H550V716H621V0H550V349Z" />
<glyph unicode="I" glyph-name="I" horiz-adv-x="243" d="M157 716V0H86V716H157Z" />
<glyph unicode="J" glyph-name="J" horiz-adv-x="495" d="M337 716H409V214Q409 -11 210 -11Q11 -11 11 214V235H82V214Q82 50 210 50Q337 50 337 214V716Z" />
<glyph unicode="K" glyph-name="K" horiz-adv-x="661" d="M324 423L647 0H559L273 374L157 266V0H86V716H157V346L547 716H641L324 423Z" />
<glyph unicode="L" glyph-name="L" horiz-adv-x="520" d="M157 716V61H503V0H86V716H157Z" />
<glyph unicode="M" glyph-name="M" horiz-adv-x="830" d="M447 0H382L148 621Q154 433 154 236V0H86V716H176L416 77L657 716H744V0H676V190Q676 477 681 614L447 0Z" />
<glyph unicode="N" glyph-name="N" horiz-adv-x="721" d="M635 0H562L145 629Q149 560 150 341V0H86V716H160L576 89Q571 203 571 384V716H635V0Z" />
<glyph unicode="O" glyph-name="O" horiz-adv-x="775" d="M387 732Q547 732 639 616Q719 514 719 358Q719 178 616 74Q526 -16 387 -16Q228 -16 136 100Q56 201 56 358Q56 538 159 642Q249 732 387 732ZM387 671Q266 671 192 578Q127 496 127 358Q127 207 208
120Q278 45 388 45Q513 45 585 142Q648 226 648 358Q648 494 583 578Q511 671 387 671Z" />
<glyph unicode="P" glyph-name="P" horiz-adv-x="620" d="M157 313V0H86V716H360Q472 716 526 669Q585 618 585 514Q585 410 526 360Q471 313 360 313H157ZM157 373H330Q427 373 469 407Q513 442 513 514Q513 586 469 621Q427 655 330 655H157V373Z" />
<glyph unicode="Q" glyph-name="Q" horiz-adv-x="775" d="M616 75L697 -4L655 -46L572 37L565 33Q484 -16 388 -16Q228 -16 136 100Q56 201 56 358Q56 538 159 642Q249 732 387 732Q547 732 639 616Q719 514 719 358Q717 177 616 75ZM569 122Q646 205 648 358Q648
509 567 596Q497 671 388 671Q262 671 190 574Q127 490 127 358Q127 207 208 120Q278 45 387 45Q452 45 510 76L525 84L433 176L473 215L569 122Z" />
<glyph unicode="R" glyph-name="R" horiz-adv-x="690" d="M157 325V0H86V716H386Q498 716 553 671Q611 624 611 528Q611 407 499 355Q545 334 565 298T590 195L596 102Q599 64 608 43T641 0H546Q531 37 527 81L520 163Q513 256 483 290T380 325H157ZM157 382H373Q463
382 501 416Q541 452 541 518Q541 584 501 621Q463 655 373 655H157V382Z" />
<glyph unicode="S" glyph-name="S" horiz-adv-x="625" d="M560 517H488Q484 583 449 620Q399 671 305 671Q220 671 172 629Q131 592 131 534Q131 443 249 418L383 390Q481 369 525 327Q575 278 575 200Q575 95 494 36Q424 -16 314 -16Q163 -16 90 78Q46 134 43
237H115Q118 45 317 45Q408 45 459 91Q504 131 504 194Q504 247 470 277T355 325L227 353Q59 389 59 533Q59 631 135 685Q201 732 307 732Q452 732 518 646Q555 598 560 517Z" />
<glyph unicode="T" glyph-name="T" horiz-adv-x="541" d="M306 655V0H235V655H7V716H534V655H306Z" />
<glyph unicode="U" glyph-name="U" horiz-adv-x="700" d="M543 716H615V253Q615 125 553 63Q480 -11 350 -11Q220 -11 148 63Q86 125 86 253V716H157V248Q157 157 196 112Q248 50 350 50Q453 50 505 112Q543 157 543 248V716Z" />
<glyph unicode="V" glyph-name="V" horiz-adv-x="621" d="M349 0H277L14 716H92L263 223Q275 190 294 134L314 78L333 137Q346 175 362 223L530 716H606L349 0Z" />
<glyph unicode="W" glyph-name="W" horiz-adv-x="897" d="M283 0H203L14 716H87L191 292Q205 234 221 165Q229 132 243 76Q249 99 260 144Q266 170 283 233L298 292L408 716H490L603 299Q621 232 639 164Q650 124 663 76L685 169Q703 249 713 292L811 716H882L704
0H623L495 464Q483 513 467 569Q453 620 447 641Q441 617 414 509L399 452L283 0Z" />
<glyph unicode="X" glyph-name="X" horiz-adv-x="590" d="M333 361L579 0H496L296 309L96 0H11L258 361L18 716H102L297 413L496 716H577L333 361Z" />
<glyph unicode="Y" glyph-name="Y" horiz-adv-x="611" d="M341 314V0H273V314L0 716H84L308 377L529 716H611L341 314Z" />
<glyph unicode="Z" glyph-name="Z" horiz-adv-x="614" d="M574 716V655L126 61H586V0H30V44L489 655H82V716H574Z" />
<glyph unicode="[" glyph-name="bracketleft" horiz-adv-x="372" d="M303 716V663H122V-49H303V-102H69V716H303Z" />
<glyph unicode="\" glyph-name="backslash" horiz-adv-x="326" d="M66 673L317 0H260L9 673H66Z" />
<glyph unicode="]" glyph-name="bracketright" horiz-adv-x="372" d="M303 716V-102H69V-49H250V663H69V716H303Z" />
<glyph unicode="^" glyph-name="asciicircum" horiz-adv-x="537" d="M104 407H37L228 717H308L500 407H432L267 669L104 407Z" />
<glyph unicode="_" glyph-name="underscore" horiz-adv-x="384" d="M387 -85V-149H-4V-85H387Z" />
<glyph unicode="`" glyph-name="grave" horiz-adv-x="491" d="M207 730L290 594H235L115 730H207Z" />
<glyph unicode="a" glyph-name="a" horiz-adv-x="551" d="M139 361H71Q75 533 278 533Q469 533 469 377V86Q469 48 494 48Q504 48 527 61V5Q496 -6 475 -6Q405 -6 405 65V77Q345 -14 217 -14Q132 -14 86 31Q46 70 46 135Q46 206 93 247Q129 278 209 290L402 321Q403
328 403 335Q403 419 377 447T275 476Q207 476 175 449T139 361ZM405 270L220 236Q114 218 114 137Q114 92 145 66T228 39Q328 39 379 114Q405 152 405 210V270Z" />
<glyph unicode="b" glyph-name="b" horiz-adv-x="589" d="M79 0V716H143V435Q208 533 318 533Q426 533 487 451Q540 379 540 265Q540 129 470 52Q408 -14 311 -14Q205 -14 143 81V0H79ZM309 476Q227 476 182 411Q143 354 143 259Q143 151 193 93Q237 43 309 43Q393
43 437 108Q476 165 476 259Q476 367 425 425Q382 476 309 476Z" />
<glyph unicode="c" glyph-name="c" horiz-adv-x="532" d="M492 358H427Q417 414 379 445T283 476Q199 476 153 411Q113 354 113 263Q113 155 166 95Q212 43 285 43Q409 43 433 182H495Q479 82 417 30Q362 -14 282 -14Q168 -14 104 69Q49 142 49 258Q49 391 123
467Q187 533 286 533Q376 533 433 480Q482 433 492 358Z" />
<glyph unicode="d" glyph-name="d" horiz-adv-x="588" d="M509 716V0H444V75Q380 -14 277 -14Q167 -14 104 71Q49 145 49 260Q49 390 120 467Q182 533 277 533Q380 533 444 442V716H509ZM279 476Q197 476 152 410Q113 353 113 259Q113 151 163 93Q207 43 279 43Q357
43 400 100T444 260Q444 367 394 425Q351 476 279 476Z" />
<glyph unicode="e" glyph-name="e" horiz-adv-x="552" d="M502 249H114Q117 145 168 91Q212 43 284 43Q397 43 437 163H502Q447 -14 282 -14Q167 -14 104 68Q49 141 49 257Q49 390 121 467Q184 533 281 533Q390 533 450 454Q503 385 503 273Q503 266 502 249ZM436
301Q432 383 391 429T282 476Q214 476 171 431T117 301H436Z" />
<glyph unicode="f" glyph-name="f" horiz-adv-x="268" d="M247 519V467H161V0H93V467H18V519H93V606Q93 669 120 697T210 725Q229 725 247 722V665Q234 667 221 667Q185 667 173 654T161 600V519H247Z" />
<glyph unicode="g" glyph-name="g" horiz-adv-x="590" d="M450 519H511V58Q511 -63 460 -115Q397 -179 281 -179Q188 -179 134 -137Q86 -100 80 -40H149Q157 -121 282 -121Q450 -121 450 49V96Q379 8 278 8Q170 8 105 90Q49 162 49 268Q49 392 123 468Q187 533
281 533Q388 533 450 443V519ZM284 476Q211 476 162 419Q117 365 117 271Q117 172 169 115Q214 66 284 66Q364 66 410 129Q450 185 450 271Q450 366 405 419Q356 476 284 476Z" />
<glyph unicode="h" glyph-name="h" horiz-adv-x="557" d="M79 0V716H143V452Q199 533 305 533Q400 533 447 474Q479 434 479 345V0H415V336Q415 401 394 431Q364 476 297 476Q225 476 181 426Q143 382 143 318V0H79Z" />
<glyph unicode="i" glyph-name="i" horiz-adv-x="222" d="M143 519V0H78V519H143ZM111 703Q126 703 137 692T148 665Q148 650 137 639T111 627Q95 627 84 638T73 665Q73 681 84 692T111 703Z" />
<glyph unicode="j" glyph-name="j" horiz-adv-x="222" d="M79 519H143V-30Q143 -90 132 -112Q107 -165 31 -165H-10V-113H15Q55 -112 67 -96T79 -25V519ZM110 708Q126 708 137 697T148 671Q148 655 137 644T110 633Q95 633 84 644T73 671Q73 686 84 697T110 708Z" />
<glyph unicode="k" glyph-name="k" horiz-adv-x="524" d="M281 324L502 0H423L234 285L143 202V0H79V716H143V274L408 519H494L281 324Z" />
<glyph unicode="l" glyph-name="l" horiz-adv-x="225" d="M147 716V0H79V716H147Z" />
<glyph unicode="m" glyph-name="m" horiz-adv-x="853" d="M79 519H143V453Q194 533 295 533Q410 533 445 440Q498 533 610 533Q693 533 739 483Q774 444 774 356V0H710V356Q710 414 686 442Q656 476 598 476Q523 476 486 419Q460 379 460 301V0H396V356Q396 414
375 440Q346 476 289 476Q222 476 183 434T143 319V0H79V519Z" />
<glyph unicode="n" glyph-name="n" horiz-adv-x="554" d="M79 519H143V445Q203 533 305 533Q395 533 441 479Q476 438 476 354V0H412V340Q412 412 387 440Q357 476 297 476Q230 476 185 430Q143 388 143 305V0H79V519Z" />
<glyph unicode="o" glyph-name="o" horiz-adv-x="577" d="M288 533Q403 533 469 448Q527 374 527 259Q527 128 453 52Q388 -14 288 -14Q173 -14 107 71Q49 145 49 259Q49 391 123 467Q188 533 288 533ZM288 476Q205 476 158 409Q117 351 117 259Q117 154 170 94Q215
43 288 43Q371 43 418 110Q459 168 459 259Q459 364 406 424Q360 476 288 476Z" />
<glyph unicode="p" glyph-name="p" horiz-adv-x="587" d="M79 519H143V444Q209 533 313 533Q422 533 484 451Q537 379 537 266Q537 132 467 54Q405 -14 311 -14Q214 -14 143 76V-165H79V519ZM308 476Q226 476 182 410Q143 353 143 259Q143 152 193 93Q237 43 308
43Q390 43 435 108Q473 165 473 259Q473 367 423 425Q380 476 308 476Z" />
<glyph unicode="q" glyph-name="q" horiz-adv-x="589" d="M510 519V-165H445V83Q386 -14 271 -14Q162 -14 102 69Q49 141 49 257Q49 391 120 467Q182 533 280 533Q387 533 445 439V519H510ZM279 476Q204 476 156 414Q113 358 113 259Q113 154 165 95Q209 43 280
43Q356 43 403 104Q445 161 445 259Q445 358 403 414Q355 476 279 476Z" />
<glyph unicode="r" glyph-name="r" horiz-adv-x="335" d="M79 519H143L140 426Q179 526 288 526Q296 526 314 525L313 459Q298 462 292 462Q217 461 176 404Q143 358 143 273V0H79V519Z" />
<glyph unicode="s" glyph-name="s" horiz-adv-x="506" d="M455 369H384Q366 476 253 476Q131 476 131 386Q131 329 208 311L336 280Q459 251 459 151Q459 70 397 25Q343 -14 258 -14Q141 -14 85 53Q62 81 54 100T45 155H118Q122 95 155 69T261 43Q321 43 356 70T391
143Q391 203 308 222L182 252Q63 280 63 384Q63 453 114 493T255 533Q349 533 404 481Q450 437 455 369Z" />
<glyph unicode="t" glyph-name="t" horiz-adv-x="289" d="M259 519V467H163V101Q163 75 171 66T202 56Q227 56 257 66L268 6Q214 -7 180 -7Q133 -7 114 16T95 95V467H21V519H95V626L163 670V519H259Z" />
<glyph unicode="u" glyph-name="u" horiz-adv-x="554" d="M476 0H412V73Q353 -14 250 -14Q160 -14 114 40Q79 80 79 165V519H143V179Q143 107 168 79Q198 43 258 43Q325 43 370 88Q412 130 412 214V519H476V0Z" />
<glyph unicode="v" glyph-name="v" horiz-adv-x="481" d="M273 0H205L7 519H82L181 244Q198 197 215 151Q230 111 242 78Q255 110 269 151Q280 182 303 244L401 519H473L273 0Z" />
<glyph unicode="w" glyph-name="w" horiz-adv-x="710" d="M233 0H168L7 519H78L181 168Q191 134 201 83Q210 132 220 168L321 519H387L483 168Q494 126 502 83Q513 138 522 168L630 519H702L529 0H467L375 334Q363 377 352 433Q339 375 327 334L233 0Z" />
<glyph unicode="x" glyph-name="x" horiz-adv-x="478" d="M277 271L475 0H397L239 222L83 0H4L203 271L25 519H102L240 322L380 519H458L277 271Z" />
<glyph unicode="y" glyph-name="y" horiz-adv-x="475" d="M7 519H77L199 195Q226 125 238 71Q248 119 279 197L399 519H467L238 -68Q214 -130 184 -154T103 -179Q65 -179 39 -170L55 -112Q77 -122 102 -122Q149 -122 176 -55L204 14L7 519Z" />
<glyph unicode="z" glyph-name="z" horiz-adv-x="463" d="M445 56V0H31V47L352 463H54V519H432V469L113 56H445Z" />
<glyph unicode="{" glyph-name="braceleft" horiz-adv-x="382" d="M318 719L335 696V678Q326 678 318 678Q186 678 186 615V413V411Q186 327 79 311V305Q185 289 186 203V1Q186 -62 318 -62Q328 -62 335 -61V-80L318 -103Q311 -104 297 -104Q218 -102 174 -73Q134
-46 134 25V191Q134 273 16 273V342Q134 342 134 419Q134 421 134 424V591Q134 662 174 689Q217 718 297 720Q311 720 318 719Z" />
<glyph unicode="|" glyph-name="bar" horiz-adv-x="196" d="M127 688V28H69V688H127Z" />
<glyph unicode="}" glyph-name="braceright" horiz-adv-x="382" d="M46 696L64 719Q70 720 85 720Q164 718 207 689Q248 662 248 591V424Q247 421 247 419Q247 342 365 342V273Q248 273 248 191V25Q248 -46 207 -73Q164 -102 85 -104Q70 -104 64 -103L46 -80V-61Q54
-62 64 -62Q195 -62 195 1V203Q197 289 303 305V311Q195 327 195 411V413V615Q195 678 64 678Q55 678 46 678V696Z" />
<glyph unicode="~" glyph-name="asciitilde" horiz-adv-x="618" d="M91 265L52 295Q108 411 194 411Q236 411 320 368Q393 330 424 330Q480 330 526 413L565 383Q512 268 418 268Q394 268 372 276T282 319Q224 349 190 349Q137 349 91 265Z" />
<glyph unicode="&#xa0;" glyph-name="nbspace" horiz-adv-x="184" />
<glyph unicode="&#xa1;" glyph-name="exclamdown" horiz-adv-x="258" d="M105 340H153L167 41V-197H92V41L105 340ZM127 500Q142 500 153 489T164 462Q164 447 153 436T127 424Q111 424 100 435T89 462Q89 478 100 489T127 500Z" />
<glyph unicode="&#xa2;" glyph-name="cent" horiz-adv-x="541" d="M312 683V607Q349 606 381 597Q405 591 425 580L409 526Q379 537 357 543Q327 550 303 550Q237 550 202 516Q151 467 151 342Q151 138 295 138Q379 138 449 170V142L425 113Q383 89 312 82V-9H254V86Q179
98 137 157Q92 220 92 342Q92 466 138 532Q177 591 254 603V683H312Z" />
<glyph unicode="&#xa3;" glyph-name="sterling" horiz-adv-x="639" d="M189 521Q189 588 239 635Q289 679 367 679Q433 679 491 651V597Q433 632 367 632Q311 632 280 601Q246 567 246 501V351H428V307H246V187Q246 119 218 71Q279 77 328 77Q449 77 547 41V24L527
0Q415 31 321 31Q227 31 92 0V48Q135 55 161 88Q189 124 189 186V307H93V351H189V521Z" />
<glyph unicode="&#xa4;" glyph-name="currency" horiz-adv-x="502" d="M114 435L55 494L89 528L147 469Q194 503 251 503Q308 503 352 469L412 528L446 495L386 435Q420 387 420 333Q420 272 386 230L445 171L412 139L352 197Q306 163 251 163Q194 163 148 199L89
139L56 172L114 231Q81 276 81 333Q81 387 114 435ZM129 333Q129 281 164 247Q200 210 251 210Q303 210 339 247Q374 283 374 333Q374 385 339 421Q303 458 251 458Q200 458 164 421Q129 386 129 333Z" />
<glyph unicode="&#xa5;" glyph-name="yen" horiz-adv-x="516" d="M488 673L317 315H438V261H286V184H438V130H286V23L257 0H229V130H79V184H229V261H79V315H196L28 673H97L257 302L419 673H488Z" />
<glyph unicode="&#xa6;" glyph-name="brokenbar" horiz-adv-x="196" d="M69 688H127V412H69V688ZM127 28H69V304H127V28Z" />
<glyph unicode="&#xa7;" glyph-name="section" horiz-adv-x="624" d="M492 557H420Q407 666 308 666Q263 666 235 642T207 578Q207 528 277 486L420 401Q490 360 518 323T546 234Q546 142 450 93Q493 39 493 -15Q493 -90 434 -137Q383 -179 311 -179Q204 -179
151 -103Q123 -63 120 5H191Q204 -115 311 -115Q358 -115 390 -87T422 -17Q422 13 405 35T343 84L217 159Q142 204 111 244T79 335Q79 427 173 477Q136 522 136 577Q136 645 184 687T309 730Q388 730 436 685T492 557ZM216 439Q150 405 150 343Q150 305 179 275T297
194L406 132Q474 169 474 229Q474 288 378 344L216 439Z" />
<glyph unicode="&#xa8;" glyph-name="dieresis" horiz-adv-x="491" d="M153 708Q168 708 179 697T190 671Q190 655 179 644T153 633Q137 633 126 644T115 671Q115 686 126 697T153 708ZM327 708Q342 708 353 697T364 671Q364 655 353 644T327 633Q311 633 300
644T289 671Q289 686 300 697T327 708Z" />
<glyph unicode="&#xa9;" glyph-name="copyright" horiz-adv-x="784" d="M392 683Q485 683 567 636Q645 590 691 511Q738 429 738 336Q738 244 691 162Q646 84 567 38Q486 -9 392 -9Q298 -9 218 38Q138 84 93 162Q46 243 46 336Q46 430 93 511Q139 590 218 636Q299
683 392 683ZM392 640Q267 640 178 551Q89 462 89 336Q89 210 178 122Q266 33 392 33Q518 33 607 122Q696 211 696 336Q696 461 607 551Q517 640 392 640ZM468 136Q450 128 406 128Q317 128 270 186Q225 241 225 337Q225 431 274 487Q326 545 412 545Q467 545 518
520L492 471Q444 495 409 495Q346 495 311 449Q282 407 282 336Q282 269 305 227Q336 178 409 178Q429 178 458 184Q466 186 482 190Q495 194 501 196V177L468 136Z" />
<glyph unicode="&#xaa;" glyph-name="ordfeminine" horiz-adv-x="323" d="M74 617H33Q36 721 159 721Q275 721 275 627V450Q275 427 290 427Q296 427 310 435V401Q291 394 278 394Q236 394 236 437V444Q199 389 122 389Q74 389 46 413T18 480Q18 523 47 548Q68
566 117 574L234 593Q234 599 234 601Q234 652 219 669T157 687Q79 687 74 617ZM236 561L123 541Q59 530 59 481Q59 422 128 422Q189 422 220 467Q236 490 236 525V561Z" />
<glyph unicode="&#xab;" glyph-name="guillemotleft" horiz-adv-x="405" d="M191 476L214 457L90 267L214 77L192 58H176L37 262V270L176 476H191ZM345 476L368 457L244 267L368 77L345 58H330L191 262V270L330 476H345Z" />
<glyph unicode="&#xac;" glyph-name="logicalnot" horiz-adv-x="537" d="M433 0V234H36V295H501V0H433Z" />
<glyph unicode="&#xad;" glyph-name="uni00AD" horiz-adv-x="260" d="M260 295V234H0V295H260Z" />
<glyph unicode="&#xae;" glyph-name="registered" horiz-adv-x="784" d="M392 683Q485 683 567 636Q645 590 691 511Q738 429 738 336Q738 244 691 162Q646 84 567 38Q486 -9 392 -9Q298 -9 218 38Q138 84 93 162Q46 243 46 336Q46 430 93 511Q139 590 218 636Q299
683 392 683ZM392 640Q267 640 178 551Q89 462 89 336Q89 210 178 122Q266 33 392 33Q518 33 607 122Q696 211 696 336Q696 461 607 551Q517 640 392 640ZM243 539H388Q454 539 492 503T530 401Q530 331 465 299L543 154L516 133H483L408 280H302V133H243V539ZM386
477H302V343H393Q428 343 447 362Q468 382 468 415Q468 436 459 451Q441 477 386 477Z" />
<glyph unicode="&#xaf;" glyph-name="overscore" horiz-adv-x="469" d="M0 825H469V780H0V825Z" />
<glyph unicode="&#xb0;" glyph-name="degree" horiz-adv-x="360" d="M41 544Q41 601 82 642Q122 683 179 683Q236 683 276 642Q318 601 318 544Q318 488 276 448Q236 407 179 407Q121 407 82 448Q41 488 41 544ZM82 544Q82 502 111 472Q138 442 179 442Q219 442
248 472Q276 502 276 544Q276 588 248 618Q218 649 179 649Q139 649 111 618Q82 588 82 544Z" />
<glyph unicode="&#xb1;" glyph-name="plusminus" horiz-adv-x="537" d="M27 329H248V535H288V329H509V290H288V87H248V290H27V329ZM27 39H509V-1H27V39Z" />
<glyph unicode="&#xb2;" glyph-name="twosuperior" horiz-adv-x="387" d="M334 329V286H46Q45 298 45 302Q45 357 75 398Q102 434 189 482Q244 513 263 535T282 594Q282 674 197 674Q108 674 107 571H54Q55 642 93 681T199 720Q261 720 298 686T336 596Q336 549
310 517T217 446Q136 400 117 375Q102 355 97 329H334Z" />
<glyph unicode="&#xb3;" glyph-name="threesuperior" horiz-adv-x="387" d="M142 491V531Q163 530 172 530Q214 530 238 550T263 606Q263 638 240 657T178 677Q90 677 90 588Q90 585 90 581H40Q41 647 77 683T178 720Q238 720 275 688T312 606Q312 548 255 515Q327
486 327 412Q327 353 285 316T177 278Q109 278 69 316T29 419H80Q82 321 179 321Q221 321 248 345T275 408Q275 492 169 492H159Q149 492 142 491Z" />
<glyph unicode="&#xb4;" glyph-name="acute" horiz-adv-x="491" d="M277 730H369L250 594H194L277 730Z" />
<glyph unicode="&#xb5;" glyph-name="mu" horiz-adv-x="537" d="M59 -177V515H119V219Q119 162 127 134T158 82Q201 37 262 37Q336 37 379 98Q418 151 418 231V515H478V0H418V105Q370 -14 261 -14Q171 -14 119 68V-177H59Z" />
<glyph unicode="&#xb6;" glyph-name="paragraph" horiz-adv-x="581" d="M241 -122V335Q183 335 148 348Q90 368 58 414T25 524Q25 637 115 687Q166 716 256 716H506V683H442V-122H401V683H281V-122H241Z" />
<glyph unicode="&#xb7;" glyph-name="middot" horiz-adv-x="249" d="M79 409H170V302H79V409Z" />
<glyph unicode="&#xb8;" glyph-name="cedilla" horiz-adv-x="491" d="M283 9L253 -50Q265 -46 275 -46Q305 -46 324 -64T343 -112Q343 -148 318 -170T250 -192Q205 -192 158 -165L175 -124Q211 -146 245 -146Q288 -146 288 -112Q288 -82 255 -82Q240 -82 222 -93L195
-73L241 10L283 9Z" />
<glyph unicode="&#xb9;" glyph-name="onesuperior" horiz-adv-x="387" d="M226 716V286H176V603H73V637Q133 638 157 655T186 716H226Z" />
<glyph unicode="&#xba;" glyph-name="ordmasculine" horiz-adv-x="376" d="M188 742Q257 742 299 697T341 577Q341 497 294 451Q253 412 188 412Q119 412 78 457T36 577Q36 656 83 702Q124 742 188 742ZM188 701Q142 701 115 667T87 577Q87 520 114 487T188 453Q235
453 262 486T290 577Q290 633 263 667T188 701ZM304 338V285H57V338H304Z" />
<glyph unicode="&#xbb;" glyph-name="guillemotright" horiz-adv-x="405" d="M60 476H75L214 270V262L75 58H60L37 77L161 267L37 457L60 476ZM214 476H229L368 270V262L229 58H213L191 77L315 267L191 457L214 476Z" />
<glyph unicode="&#xbc;" glyph-name="onequarter" horiz-adv-x="609" d="M167 673V282L144 263H122V620L39 560L16 589L123 673H167ZM509 673L113 0H59L456 673H509ZM544 412V148H592V107H544V15L525 0H501V107H311V146L503 412H544ZM501 347L358 148H501V347Z" />
<glyph unicode="&#xbd;" glyph-name="onehalf" horiz-adv-x="671" d="M167 673V282L144 263H122V620L39 560L16 589L123 673H167ZM533 673L137 0H83L480 673H533ZM433 374Q492 414 545 414Q591 414 619 386T648 312Q648 253 588 181Q569 159 513 97L489 70L462
41H648V25L627 0H410V42L445 80Q461 99 499 140Q528 172 542 187Q607 262 607 311Q607 337 589 354T544 371Q504 371 458 341L433 374Z" />
<glyph unicode="&#xbe;" glyph-name="threequarters" horiz-adv-x="672" d="M44 668Q83 685 125 685Q172 685 201 658T230 587Q230 545 209 518Q189 493 153 484Q203 481 231 440Q249 411 249 377Q249 327 214 298T117 269Q75 269 34 280L17 303V318Q62 305 105
305Q151 305 178 323T205 373Q205 417 170 442T74 468Q71 468 66 468V499H105Q143 499 165 521T188 583Q188 649 121 649Q86 649 44 634V668ZM586 673L190 0H137L533 673H586ZM608 412V148H656V107H608V15L589 0H564V107H375L374 146L567 412H608ZM564 347L422
148H564V347Z" />
<glyph unicode="&#xbf;" glyph-name="questiondown" horiz-adv-x="503" d="M220 340H284Q285 324 285 315Q285 256 266 216T196 131Q140 82 122 53T104 -17Q104 -76 142 -113T242 -151Q293 -151 331 -124T384 -52Q393 -23 393 23H463Q464 12 464 5Q464 -99 394
-159Q333 -211 239 -211Q140 -211 82 -152Q32 -101 32 -22Q32 27 52 64T126 150Q192 211 203 232Q221 266 221 319Q221 327 220 340ZM250 492Q266 492 277 481T288 454Q288 439 277 428T250 417Q234 417 223 428T212 454Q212 470 223 481T250 492Z" />
<glyph unicode="&#xc0;" glyph-name="Agrave" horiz-adv-x="663" d="M487 226H172L87 0H14L291 716H366L648 0H574L487 226ZM464 283L326 642L193 283H464ZM368 771H316L209 904H295L368 771Z" />
<glyph unicode="&#xc1;" glyph-name="Aacute" horiz-adv-x="663" d="M487 226H172L87 0H14L291 716H366L648 0H574L487 226ZM464 283L326 642L193 283H464ZM305 771L378 904H464L356 771H305Z" />
<glyph unicode="&#xc2;" glyph-name="Acircumflex" horiz-adv-x="663" d="M487 226H172L87 0H14L291 716H366L648 0H574L487 226ZM464 283L326 642L193 283H464ZM368 906L483 769H410L331 864L252 769H180L294 906H368Z" />
<glyph unicode="&#xc3;" glyph-name="Atilde" horiz-adv-x="663" d="M487 226H172L87 0H14L291 716H366L648 0H574L487 226ZM464 283L326 642L193 283H464ZM437 883H487Q482 840 461 814T409 788Q391 788 362 797L281 823Q267 827 258 827Q233 827 225 793H175Q185
887 252 887Q268 887 288 881L376 853Q395 847 404 847Q428 847 437 883Z" />
<glyph unicode="&#xc4;" glyph-name="Adieresis" horiz-adv-x="663" d="M487 226H172L87 0H14L291 716H366L648 0H574L487 226ZM464 283L326 642L193 283H464ZM251 872Q266 872 277 861T288 834Q288 819 277 808T251 796Q235 796 224 807T213 834Q213 850 224
861T251 872ZM405 872Q421 872 432 861T443 834Q443 819 432 808T405 796Q390 796 379 807T367 834Q367 850 378 861T405 872Z" />
<glyph unicode="&#xc5;" glyph-name="Aring" horiz-adv-x="663" d="M487 226H172L87 0H14L291 716H366L648 0H574L487 226ZM464 283L326 642L193 283H464ZM331 916Q364 916 387 893T410 837Q410 805 387 782T331 759Q299 759 276 782T252 837Q252 870 275 893T331
916ZM331 877Q315 877 304 866T292 837Q292 821 303 810T331 798Q348 798 359 809T371 837Q371 854 359 865T331 877Z" />
<glyph unicode="&#xc6;" glyph-name="AE" horiz-adv-x="970" d="M438 222H168L85 0H14L290 716H916V655H509V396H883V339H509V61H925V0H438V222ZM438 279V655H332L190 279H438Z" />
<glyph unicode="&#xc7;" glyph-name="Ccedilla" horiz-adv-x="715" d="M393 -16L373 -54Q386 -49 396 -49Q429 -49 448 -68T468 -118Q468 -157 442 -180T372 -203Q323 -203 274 -175L291 -131Q329 -154 364 -154Q411 -154 411 -119Q411 -88 376 -88Q361 -88 341
-99L313 -77L347 -15Q200 -3 123 108Q56 204 56 358Q56 543 155 644Q240 732 380 732Q498 732 576 666Q644 608 665 513H590Q572 587 515 629T377 671Q253 671 186 575Q127 491 127 355Q127 203 203 118Q269 45 375 45Q473 45 536 109Q591 165 604 257H674Q655
124 574 53Q503 -9 393 -16Z" />
<glyph unicode="&#xc8;" glyph-name="Egrave" horiz-adv-x="618" d="M564 716V655H157V396H531V339H157V61H574V0H86V716H564ZM382 771H331L223 904H309L382 771Z" />
<glyph unicode="&#xc9;" glyph-name="Eacute" horiz-adv-x="618" d="M564 716V655H157V396H531V339H157V61H574V0H86V716H564ZM289 771L362 904H448L340 771H289Z" />
<glyph unicode="&#xca;" glyph-name="Ecircumflex" horiz-adv-x="618" d="M564 716V655H157V396H531V339H157V61H574V0H86V716H564ZM375 906L490 769H417L338 864L259 769H187L301 906H375Z" />
<glyph unicode="&#xcb;" glyph-name="Edieresis" horiz-adv-x="618" d="M564 716V655H157V396H531V339H157V61H574V0H86V716H564ZM251 872Q267 872 278 861T289 834Q289 819 278 808T251 796Q236 796 225 807T213 834Q213 850 224 861T251 872ZM405 872Q421 872
432 861T443 834Q443 819 432 808T405 796Q390 796 379 807T368 834Q368 850 379 861T405 872Z" />
<glyph unicode="&#xcc;" glyph-name="Igrave" horiz-adv-x="243" d="M157 716V0H86V716H157ZM158 771H107L-1 904H85L158 771Z" />
<glyph unicode="&#xcd;" glyph-name="Iacute" horiz-adv-x="243" d="M157 716V0H86V716H157ZM95 771L168 904H255L147 771H95Z" />
<glyph unicode="&#xce;" glyph-name="Icircumflex" horiz-adv-x="243" d="M157 716V0H86V716H157ZM158 906L273 769H200L121 864L42 769H-30L84 906H158Z" />
<glyph unicode="&#xcf;" glyph-name="Idieresis" horiz-adv-x="243" d="M157 716V0H85V716H157ZM53 872Q68 872 79 861T90 834Q90 819 79 808T53 796Q37 796 26 807T15 834Q15 850 26 861T53 872ZM207 872Q223 872 234 861T245 834Q245 819 234 808T207 796Q192
796 181 807T169 834Q169 850 180 861T207 872Z" />
<glyph unicode="&#xd0;" glyph-name="Eth" horiz-adv-x="712" d="M86 339H37V396H86V716H347Q521 716 593 605Q656 508 656 360Q656 202 581 102Q541 48 483 24T332 0H86V339ZM157 339V61H316Q399 61 446 79T526 142Q584 222 584 359Q584 513 522 588Q465 655
343 655H157V396H360V339H157Z" />
<glyph unicode="&#xd1;" glyph-name="Ntilde" horiz-adv-x="721" d="M635 0H562L145 629Q149 560 150 341V0H86V716H160L576 89Q571 203 571 384V716H635V0ZM468 883H518Q513 840 492 814T440 788Q422 788 393 797L312 823Q298 827 289 827Q263 827 257 793H206Q216
887 283 887Q299 887 319 881L407 853Q426 847 435 847Q459 847 468 883Z" />
<glyph unicode="&#xd2;" glyph-name="Ograve" horiz-adv-x="775" d="M387 732Q547 732 639 616Q719 514 719 358Q719 178 616 74Q526 -16 387 -16Q228 -16 136 100Q56 201 56 358Q56 538 159 642Q249 732 387 732ZM387 671Q266 671 192 578Q127 496 127 358Q127
207 208 120Q278 45 388 45Q513 45 585 142Q648 226 648 358Q648 494 583 578Q511 671 387 671ZM432 771H380L272 904H358L432 771Z" />
<glyph unicode="&#xd3;" glyph-name="Oacute" horiz-adv-x="775" d="M387 732Q547 732 639 616Q719 514 719 358Q719 178 616 74Q526 -16 387 -16Q228 -16 136 100Q56 201 56 358Q56 538 159 642Q249 732 387 732ZM387 671Q266 671 192 578Q127 496 127 358Q127
207 208 120Q278 45 388 45Q513 45 585 142Q648 226 648 358Q648 494 583 578Q511 671 387 671ZM349 771L423 904H509L401 771H349Z" />
<glyph unicode="&#xd4;" glyph-name="Ocircumflex" horiz-adv-x="775" d="M387 732Q547 732 639 616Q719 514 719 358Q719 178 616 74Q526 -16 387 -16Q228 -16 136 100Q56 201 56 358Q56 538 159 642Q249 732 387 732ZM387 671Q266 671 192 578Q127 496 127 358Q127
207 208 120Q278 45 388 45Q513 45 585 142Q648 226 648 358Q648 494 583 578Q511 671 387 671ZM427 906L542 769H469L390 864L311 769H239L353 906H427Z" />
<glyph unicode="&#xd5;" glyph-name="Otilde" horiz-adv-x="775" d="M387 732Q547 732 639 616Q719 514 719 358Q719 178 616 74Q526 -16 387 -16Q228 -16 136 100Q56 201 56 358Q56 538 159 642Q249 732 387 732ZM387 671Q266 671 192 578Q127 496 127 358Q127
207 208 120Q278 45 388 45Q513 45 585 142Q648 226 648 358Q648 494 583 578Q511 671 387 671ZM493 883H543Q538 839 517 814T465 788Q447 788 419 797L338 823Q324 827 315 827Q289 827 282 793H232Q241 887 307 887Q324 887 344 881L432 853Q452 847 460 847Q485
847 493 883Z" />
<glyph unicode="&#xd6;" glyph-name="Odieresis" horiz-adv-x="775" d="M387 732Q547 732 639 616Q719 514 719 358Q719 178 616 74Q526 -16 387 -16Q228 -16 136 100Q56 201 56 358Q56 538 159 642Q249 732 387 732ZM387 671Q266 671 192 578Q127 496 127 358Q127
207 208 120Q278 45 388 45Q513 45 585 142Q648 226 648 358Q648 494 583 578Q511 671 387 671ZM313 872Q328 872 339 861T350 834Q350 819 339 808T313 796Q297 796 286 807T275 834Q275 850 286 861T313 872ZM467 872Q483 872 494 861T505 834Q505 819 494 808T467
796Q451 796 440 807T429 834Q429 850 440 861T467 872Z" />
<glyph unicode="&#xd7;" glyph-name="multiply" horiz-adv-x="417" d="M354 399L384 368L238 222L372 87L342 58L208 191L74 58L44 87L178 222L32 368L63 399L208 252L354 399Z" />
<glyph unicode="&#xd8;" glyph-name="Oslash" horiz-adv-x="775" d="M162 71L84 -16L46 19L128 111Q56 207 56 358Q56 538 159 642Q249 732 387 732Q521 732 608 649L690 740L729 705L643 610Q719 512 719 357Q719 178 616 74Q526 -16 388 -16Q252 -16 162 71ZM206
121Q279 45 388 45Q513 45 585 142Q648 226 648 357Q648 478 597 558L206 121ZM175 163L564 599Q490 671 387 671Q265 671 192 578Q127 495 127 357Q127 245 175 163Z" />
<glyph unicode="&#xd9;" glyph-name="Ugrave" horiz-adv-x="700" d="M543 716H615V253Q615 125 553 63Q480 -11 350 -11Q220 -11 148 63Q86 125 86 253V716H157V248Q157 157 196 112Q248 50 350 50Q453 50 505 112Q543 157 543 248V716ZM403 771H351L244 904H330L403
771Z" />
<glyph unicode="&#xda;" glyph-name="Uacute" horiz-adv-x="700" d="M543 716H615V253Q615 125 553 63Q480 -11 350 -11Q220 -11 148 63Q86 125 86 253V716H157V248Q157 157 196 112Q248 50 350 50Q453 50 505 112Q543 157 543 248V716ZM314 771L387 904H473L365
771H314Z" />
<glyph unicode="&#xdb;" glyph-name="Ucircumflex" horiz-adv-x="700" d="M543 716H615V253Q615 125 553 63Q480 -11 350 -11Q220 -11 148 63Q86 125 86 253V716H157V248Q157 157 196 112Q248 50 350 50Q453 50 505 112Q543 157 543 248V716ZM389 906L503 769H430L352
864L272 769H200L315 906H389Z" />
<glyph unicode="&#xdc;" glyph-name="Udieresis" horiz-adv-x="700" d="M543 716H615V253Q615 125 553 63Q480 -11 350 -11Q220 -11 148 63Q86 125 86 253V716H157V248Q157 157 196 112Q248 50 350 50Q453 50 505 112Q543 157 543 248V716ZM267 872Q283 872 294
861T305 834Q305 819 294 808T267 796Q252 796 241 807T229 834Q229 850 240 861T267 872ZM421 872Q437 872 448 861T459 834Q459 819 448 808T421 796Q406 796 395 807T384 834Q384 850 395 861T421 872Z" />
<glyph unicode="&#xdd;" glyph-name="Yacute" horiz-adv-x="611" d="M341 314V0H273V314L0 716H84L308 377L529 716H611L341 314ZM268 771L341 904H427L320 771H268Z" />
<glyph unicode="&#xde;" glyph-name="Thorn" horiz-adv-x="620" d="M157 166V0H86V716H157V569H360Q472 569 526 522Q585 471 585 368Q585 264 526 213Q472 166 360 166H157ZM157 227H330Q427 227 469 260Q513 296 513 367Q513 439 469 475Q427 508 330 508H157V227Z" />
<glyph unicode="&#xdf;" glyph-name="germandbls" horiz-adv-x="545" d="M218 376V428H244Q392 428 392 549Q392 602 358 635T267 668Q213 668 179 635Q143 601 143 509V0H79V519Q79 632 135 680Q188 725 271 725Q360 725 412 671Q456 625 456 553Q456 458 366
408Q496 361 496 218Q496 107 430 46Q373 -7 279 -7Q247 -7 203 0V61Q240 50 271 50Q344 50 387 95T431 215Q431 376 245 376H218Z" />
<glyph unicode="&#xe0;" glyph-name="agrave" horiz-adv-x="551" d="M267 730L350 594H294L174 730H267ZM139 361H71Q75 533 278 533Q469 533 469 377V86Q469 48 494 48Q504 48 527 61V5Q496 -6 475 -6Q405 -6 405 65V77Q345 -14 217 -14Q132 -14 86 31Q46 70
46 135Q46 206 93 247Q129 278 209 290L402 321Q403 328 403 335Q403 419 377 447T275 476Q207 476 175 449T139 361ZM405 270L220 236Q114 218 114 137Q114 92 145 66T228 39Q328 39 379 114Q405 152 405 210V270Z" />
<glyph unicode="&#xe1;" glyph-name="aacute" horiz-adv-x="551" d="M336 730H428L309 594H253L336 730ZM139 361H71Q75 533 278 533Q469 533 469 377V86Q469 48 494 48Q504 48 527 61V5Q496 -6 475 -6Q405 -6 405 65V77Q345 -14 217 -14Q132 -14 86 31Q46 70
46 135Q46 206 93 247Q129 278 209 290L402 321Q403 328 403 335Q403 419 377 447T275 476Q207 476 175 449T139 361ZM405 270L220 236Q114 218 114 137Q114 92 145 66T228 39Q328 39 379 114Q405 152 405 210V270Z" />
<glyph unicode="&#xe2;" glyph-name="acircumflex" horiz-adv-x="551" d="M321 730L436 594H363L284 689L205 594H133L247 730H321ZM139 361H71Q75 533 278 533Q469 533 469 377V86Q469 48 494 48Q504 48 527 61V5Q496 -6 475 -6Q405 -6 405 65V77Q345 -14 217
-14Q132 -14 86 31Q46 70 46 135Q46 206 93 247Q129 278 209 290L402 321Q403 328 403 335Q403 419 377 447T275 476Q207 476 175 449T139 361ZM405 270L220 236Q114 218 114 137Q114 92 145 66T228 39Q328 39 379 114Q405 152 405 210V270Z" />
<glyph unicode="&#xe3;" glyph-name="atilde" horiz-adv-x="551" d="M389 702H439Q434 659 413 633T360 607Q343 607 314 616L233 642Q221 646 210 646Q185 646 177 613H127Q137 706 203 706Q221 706 240 700L328 672Q347 666 356 666Q380 666 389 702ZM139 361H71Q75
533 278 533Q469 533 469 377V86Q469 48 494 48Q504 48 527 61V5Q496 -6 475 -6Q405 -6 405 65V77Q345 -14 217 -14Q132 -14 86 31Q46 70 46 135Q46 206 93 247Q129 278 209 290L402 321Q403 328 403 335Q403 419 377 447T275 476Q207 476 175 449T139 361ZM405
270L220 236Q114 218 114 137Q114 92 145 66T228 39Q328 39 379 114Q405 152 405 210V270Z" />
<glyph unicode="&#xe4;" glyph-name="adieresis" horiz-adv-x="551" d="M195 697Q211 697 222 686T233 659Q233 643 222 632T195 621Q180 621 169 632T158 659Q158 674 169 685T195 697ZM372 697Q388 697 399 686T410 659Q410 643 399 632T372 621Q357 621 346
632T335 659Q335 674 346 685T372 697ZM139 361H71Q75 533 278 533Q469 533 469 377V86Q469 48 494 48Q504 48 527 61V5Q496 -6 475 -6Q405 -6 405 65V77Q345 -14 217 -14Q132 -14 86 31Q46 70 46 135Q46 206 93 247Q129 278 209 290L402 321Q403 328 403 335Q403
419 377 447T275 476Q207 476 175 449T139 361ZM405 270L220 236Q114 218 114 137Q114 92 145 66T228 39Q328 39 379 114Q405 152 405 210V270Z" />
<glyph unicode="&#xe5;" glyph-name="aring" horiz-adv-x="551" d="M288 766Q325 766 351 740T377 676Q377 639 351 613T288 587Q251 587 225 613T198 676Q198 713 224 739T288 766ZM288 726Q267 726 252 712T237 676Q237 656 252 641T288 626Q308 626 322 640T337
676Q337 698 323 712T288 726ZM139 361H71Q75 533 278 533Q469 533 469 377V86Q469 48 494 48Q504 48 527 61V5Q496 -6 475 -6Q405 -6 405 65V77Q345 -14 217 -14Q132 -14 86 31Q46 70 46 135Q46 206 93 247Q129 278 209 290L402 321Q403 328 403 335Q403 419 377
447T275 476Q207 476 175 449T139 361ZM405 270L220 236Q114 218 114 137Q114 92 145 66T228 39Q328 39 379 114Q405 152 405 210V270Z" />
<glyph unicode="&#xe6;" glyph-name="ae" horiz-adv-x="873" d="M130 362H66Q76 445 128 489T270 533Q376 533 437 447Q511 533 605 533Q751 533 802 397Q823 338 824 246H446Q449 157 471 120Q515 43 607 43Q661 43 702 75T757 161H820Q757 -14 602 -14Q481 -14
416 100Q356 -14 222 -14Q135 -14 87 32Q46 73 46 138Q46 184 69 220T133 272Q153 280 208 290Q255 298 292 307L390 329L389 401Q389 429 351 452T265 476Q139 476 130 362ZM389 279L306 260Q190 234 167 224Q114 200 114 138Q114 43 226 43Q303 43 347 87Q384
125 387 212L389 279ZM758 298Q755 389 710 435Q670 476 604 476Q555 476 516 452T460 387Q448 355 446 298H758Z" />
<glyph unicode="&#xe7;" glyph-name="ccedilla" horiz-adv-x="532" d="M298 -14L279 -51Q291 -46 300 -46Q332 -46 350 -64T369 -112Q369 -148 344 -170T277 -192Q232 -192 185 -165L201 -124Q237 -146 271 -146Q315 -146 315 -113Q315 -83 282 -83Q266 -83 249
-93L222 -73L255 -13Q151 -1 97 79Q49 149 49 258Q49 391 123 467Q186 533 286 533Q376 533 433 480Q482 433 492 358H427Q417 414 379 445T283 476Q199 476 153 411Q113 354 113 263Q113 155 166 95Q212 43 285 43Q409 43 433 181H495Q480 92 429 42T298 -14Z"
/>
<glyph unicode="&#xe8;" glyph-name="egrave" horiz-adv-x="552" d="M502 249H114Q117 145 168 91Q212 43 284 43Q397 43 437 163H502Q447 -14 282 -14Q167 -14 104 68Q49 141 49 257Q49 390 121 467Q184 533 281 533Q390 533 450 454Q503 385 503 273Q503 266
502 249ZM436 301Q432 383 391 429T282 476Q214 476 171 431T117 301H436ZM264 730L346 594H291L171 730H264Z" />
<glyph unicode="&#xe9;" glyph-name="eacute" horiz-adv-x="552" d="M502 249H114Q117 145 168 91Q212 43 284 43Q397 43 437 163H502Q447 -14 282 -14Q167 -14 104 68Q49 141 49 257Q49 390 121 467Q184 533 281 533Q390 533 450 454Q503 385 503 273Q503 266
502 249ZM436 301Q432 383 391 429T282 476Q214 476 171 431T117 301H436ZM331 730H424L304 594H249L331 730Z" />
<glyph unicode="&#xea;" glyph-name="ecircumflex" horiz-adv-x="552" d="M502 249H114Q117 145 168 91Q212 43 284 43Q397 43 437 163H502Q447 -14 282 -14Q167 -14 104 68Q49 141 49 257Q49 390 121 467Q184 533 281 533Q390 533 450 454Q503 385 503 273Q503
266 502 249ZM436 301Q432 383 391 429T282 476Q214 476 171 431T117 301H436ZM324 730L439 594H366L287 689L208 594H136L250 730H324Z" />
<glyph unicode="&#xeb;" glyph-name="edieresis" horiz-adv-x="552" d="M502 249H114Q117 145 168 91Q212 43 284 43Q397 43 437 163H502Q447 -14 282 -14Q167 -14 104 68Q49 141 49 257Q49 390 121 467Q184 533 281 533Q390 533 450 454Q503 385 503 273Q503
266 502 249ZM436 301Q432 383 391 429T282 476Q214 476 171 431T117 301H436ZM204 697Q220 697 231 686T242 659Q242 643 231 632T204 621Q189 621 178 632T166 659Q166 674 177 685T204 697ZM381 697Q397 697 408 686T419 659Q419 643 408 632T381 621Q366 621
355 632T343 659Q343 674 354 685T381 697Z" />
<glyph unicode="&#xec;" glyph-name="igrave" horiz-adv-x="222" d="M143 519V0H78V519H143ZM72 730L155 594H100L-20 730H72Z" />
<glyph unicode="&#xed;" glyph-name="iacute" horiz-adv-x="222" d="M143 519V0H79V519H143ZM167 730H259L140 594H84L167 730Z" />
<glyph unicode="&#xee;" glyph-name="icircumflex" horiz-adv-x="222" d="M143 519V0H78V519H143ZM147 730L262 594H189L110 689L31 594H-41L73 730H147Z" />
<glyph unicode="&#xef;" glyph-name="idieresis" horiz-adv-x="222" d="M143 519V0H79V519H143ZM31 697Q46 697 57 686T68 659Q68 643 57 632T31 621Q15 621 4 632T-7 659Q-7 674 4 685T31 697ZM189 697Q205 697 216 686T227 659Q227 643 216 632T189 621Q174
621 163 632T152 659Q152 674 163 685T189 697Z" />
<glyph unicode="&#xf0;" glyph-name="eth" horiz-adv-x="580" d="M297 702L345 771L389 740L342 675Q530 541 530 274Q530 130 457 53Q394 -14 289 -14Q169 -14 105 68Q49 140 49 258Q49 392 122 467Q186 533 286 533Q364 533 415 488Q377 573 307 624L260 558L217
588L262 652Q235 666 200 681L222 734Q264 719 297 702ZM288 476Q203 476 157 410Q117 353 117 259Q117 151 169 93Q214 43 288 43Q373 43 421 110Q462 168 462 259Q462 364 408 424Q362 476 288 476Z" />
<glyph unicode="&#xf1;" glyph-name="ntilde" horiz-adv-x="554" d="M79 519H143V445Q203 533 305 533Q395 533 441 479Q476 438 476 354V0H412V340Q412 412 387 440Q357 476 297 476Q230 476 185 430Q143 388 143 305V0H79V519ZM392 702H442Q437 659 416 633T363
607Q346 607 318 616L236 642Q224 646 213 646Q188 646 181 613H131Q140 706 206 706Q224 706 243 700L331 672Q350 666 359 666Q384 666 392 702Z" />
<glyph unicode="&#xf2;" glyph-name="ograve" horiz-adv-x="577" d="M288 533Q403 533 469 448Q527 374 527 259Q527 128 453 52Q388 -14 288 -14Q173 -14 107 71Q49 145 49 259Q49 391 123 467Q188 533 288 533ZM288 476Q205 476 158 409Q117 351 117 259Q117
154 170 94Q215 43 288 43Q371 43 418 110Q459 168 459 259Q459 364 406 424Q360 476 288 476ZM266 730L349 594H293L173 730H266Z" />
<glyph unicode="&#xf3;" glyph-name="oacute" horiz-adv-x="577" d="M288 533Q403 533 469 448Q527 374 527 259Q527 128 453 52Q388 -14 288 -14Q173 -14 107 71Q49 145 49 259Q49 391 123 467Q188 533 288 533ZM288 476Q205 476 158 409Q117 351 117 259Q117
154 170 94Q215 43 288 43Q371 43 418 110Q459 168 459 259Q459 364 406 424Q360 476 288 476ZM345 730H437L318 594H262L345 730Z" />
<glyph unicode="&#xf4;" glyph-name="ocircumflex" horiz-adv-x="577" d="M288 533Q403 533 469 448Q527 374 527 259Q527 128 453 52Q388 -14 288 -14Q173 -14 107 71Q49 145 49 259Q49 391 123 467Q188 533 288 533ZM288 476Q205 476 158 409Q117 351 117 259Q117
154 170 94Q215 43 288 43Q371 43 418 110Q459 168 459 259Q459 364 406 424Q360 476 288 476ZM332 730L447 594H374L295 689L216 594H144L258 730H332Z" />
<glyph unicode="&#xf5;" glyph-name="otilde" horiz-adv-x="577" d="M288 533Q403 533 469 448Q527 374 527 259Q527 128 453 52Q388 -14 288 -14Q173 -14 107 71Q49 145 49 259Q49 391 123 467Q188 533 288 533ZM288 476Q205 476 158 409Q117 351 117 259Q117
154 170 94Q215 43 288 43Q371 43 418 110Q459 168 459 259Q459 364 406 424Q360 476 288 476ZM399 702H450Q438 607 371 607Q354 607 325 616L244 642Q232 646 221 646Q195 646 188 613H138Q147 706 213 706Q232 706 250 700L339 672Q358 666 366 666Q391 666
399 702Z" />
<glyph unicode="&#xf6;" glyph-name="odieresis" horiz-adv-x="577" d="M288 533Q403 533 469 448Q527 374 527 259Q527 128 453 52Q388 -14 288 -14Q173 -14 107 71Q49 145 49 259Q49 391 123 467Q188 533 288 533ZM288 476Q205 476 158 409Q117 351 117 259Q117
154 170 94Q215 43 288 43Q371 43 418 110Q459 168 459 259Q459 364 406 424Q360 476 288 476ZM204 697Q220 697 231 686T242 659Q242 643 231 632T204 621Q188 621 177 632T166 659Q166 674 177 685T204 697ZM381 697Q397 697 408 686T419 659Q419 643 408 632T381
621Q366 621 355 632T343 659Q343 674 354 685T381 697Z" />
<glyph unicode="&#xf7;" glyph-name="divide" horiz-adv-x="502" d="M250 401Q266 401 277 390T288 364Q288 348 277 337T250 326Q234 326 223 337T212 364Q212 379 223 390T250 401ZM460 244V191H41V244H460ZM250 111Q266 111 277 100T288 73Q288 58 277 47T250
35Q234 35 223 46T212 73Q212 89 223 100T250 111Z" />
<glyph unicode="&#xf8;" glyph-name="oslash" horiz-adv-x="577" d="M135 41L78 -22L43 9L103 76Q50 148 50 260Q50 391 124 467Q189 533 289 533Q388 533 452 469L500 522L534 490L482 431Q528 360 528 259Q528 127 453 52Q389 -14 289 -14Q198 -14 135 41ZM176
88Q221 43 289 43Q372 43 419 110Q460 168 460 259Q460 326 436 380L176 88ZM148 127L410 421Q362 476 289 476Q205 476 159 409Q118 351 118 259Q118 182 148 127Z" />
<glyph unicode="&#xf9;" glyph-name="ugrave" horiz-adv-x="554" d="M476 0H412V73Q353 -14 250 -14Q160 -14 114 40Q79 80 79 165V519H143V179Q143 107 168 79Q198 43 258 43Q325 43 370 88Q412 130 412 214V519H476V0ZM260 730L343 594H287L167 730H260Z" />
<glyph unicode="&#xfa;" glyph-name="uacute" horiz-adv-x="554" d="M476 0H412V73Q353 -14 250 -14Q160 -14 114 40Q79 80 79 165V519H143V179Q143 107 168 79Q198 43 258 43Q325 43 370 88Q412 130 412 214V519H476V0ZM333 730H426L306 594H251L333 730Z" />
<glyph unicode="&#xfb;" glyph-name="ucircumflex" horiz-adv-x="554" d="M476 0H412V73Q353 -14 250 -14Q160 -14 114 40Q79 80 79 165V519H143V179Q143 107 168 79Q198 43 258 43Q325 43 370 88Q412 130 412 214V519H476V0ZM319 730L433 594H360L282 689L203
594H131L245 730H319Z" />
<glyph unicode="&#xfc;" glyph-name="udieresis" horiz-adv-x="554" d="M476 0H412V73Q353 -14 250 -14Q160 -14 114 40Q79 80 79 165V519H143V179Q143 107 168 79Q198 43 258 43Q325 43 370 88Q412 130 412 214V519H476V0ZM186 697Q202 697 213 686T224 659Q224
643 213 632T186 621Q171 621 160 632T149 659Q149 674 160 685T186 697ZM363 697Q379 697 390 686T401 659Q401 643 390 632T363 621Q348 621 337 632T326 659Q326 674 337 685T363 697Z" />
<glyph unicode="&#xfd;" glyph-name="yacute" horiz-adv-x="475" d="M295 730H387L267 594H212L295 730ZM7 519H77L199 195Q226 125 238 71Q248 119 279 197L399 519H467L238 -68Q214 -130 184 -154T103 -179Q65 -179 39 -170L55 -112Q77 -122 102 -122Q149 -122
176 -55L204 14L7 519Z" />
<glyph unicode="&#xfe;" glyph-name="thorn" horiz-adv-x="587" d="M79 716H143V444Q209 533 313 533Q422 533 484 451Q537 379 537 266Q537 132 467 54Q405 -14 311 -14Q214 -14 143 76V-165H79V716ZM308 476Q226 476 182 410Q143 353 143 259Q143 152 193 93Q237
43 308 43Q390 43 435 108Q473 165 473 259Q473 367 423 425Q380 476 308 476Z" />
<glyph unicode="&#xff;" glyph-name="ydieresis" horiz-adv-x="475" d="M7 519H77L199 195Q226 125 238 71Q248 119 279 197L399 519H467L238 -68Q214 -130 184 -154T103 -179Q65 -179 39 -170L55 -112Q77 -122 102 -122Q149 -122 176 -55L204 14L7 519ZM155 697Q170
697 181 686T193 659Q193 643 182 632T155 621Q139 621 128 632T117 659Q117 674 128 685T155 697ZM332 697Q347 697 358 686T370 659Q370 643 359 632T332 621Q316 621 305 632T294 659Q294 674 305 685T332 697Z" />
<glyph unicode="&#x2013;" glyph-name="endash" horiz-adv-x="470" d="M433 244V191H37V244H433Z" />
<glyph unicode="&#x2014;" glyph-name="emdash" horiz-adv-x="941" d="M904 244V191H37V244H904Z" />
<glyph unicode="&#x2018;" glyph-name="quoteleft" horiz-adv-x="192" d="M128 716L143 704Q118 675 102 638Q91 608 91 590Q95 591 99 591Q134 591 136 555Q136 544 133 535Q123 513 99 513Q52 513 52 580Q52 653 110 716H128Z" />
<glyph unicode="&#x2019;" glyph-name="quoteright" horiz-adv-x="192" d="M103 638Q99 638 95 638Q59 638 59 676Q59 716 96 716Q142 716 142 649Q142 575 85 513H66L51 525Q76 553 92 591Q103 620 103 638Z" />
<glyph unicode="&#x201a;" glyph-name="quotesinglbase" horiz-adv-x="192" d="M103 20Q99 19 95 19Q59 19 59 57Q59 97 96 97Q142 97 142 30Q142 -43 85 -106H66L51 -94Q76 -65 92 -28Q103 2 103 20Z" />
<glyph unicode="&#x201c;" glyph-name="quotedblleft" horiz-adv-x="331" d="M128 716L143 704Q118 675 102 638Q91 608 91 590Q95 591 99 591Q115 591 125 580T136 553Q136 536 125 525T99 513Q52 513 52 580Q52 653 110 716H128ZM267 716L282 704Q256 675 241
638Q229 608 229 590Q234 591 238 591Q253 591 264 580T275 553Q275 536 264 525T237 513Q191 513 191 580Q191 653 248 716H267Z" />
<glyph unicode="&#x201d;" glyph-name="quotedblright" horiz-adv-x="322" d="M103 638Q99 638 95 638Q79 638 69 649T58 676Q58 692 69 704T96 716Q142 716 142 649Q142 575 85 513H66L51 525Q76 553 92 591Q103 620 103 638ZM233 638Q228 638 224 638Q209 638
198 649T187 676Q187 692 198 704T225 716Q272 716 272 649Q272 575 214 513H195L180 525Q206 553 221 591Q233 620 233 638Z" />
<glyph unicode="&#x201e;" glyph-name="quotedblbase" horiz-adv-x="322" d="M103 20Q99 19 94 19Q79 19 69 30T58 57Q58 74 69 85T96 97Q142 97 142 30Q142 -43 85 -106H66L51 -94Q76 -65 92 -28Q103 2 103 20ZM233 20Q228 19 224 19Q209 19 198 30T187 57Q187
74 198 85T225 97Q272 97 272 30Q272 -43 214 -106H195L180 -94Q206 -65 221 -28Q233 2 233 20Z" />
<glyph unicode="&#x2022;" glyph-name="bullet" horiz-adv-x="320" d="M159 237Q191 237 213 215T235 161Q235 130 213 108T159 86Q128 86 106 108T84 161Q84 192 106 214T159 237Z" />
<glyph unicode="&#x2039;" glyph-name="guilsinglleft" horiz-adv-x="251" d="M191 476L214 457L90 267L214 77L192 58H176L37 262V270L176 476H191Z" />
<glyph unicode="&#x203a;" glyph-name="guilsinglright" horiz-adv-x="251" d="M60 476H75L214 270V262L75 58H60L37 77L161 267L37 457L60 476Z" />
</font>
</defs>
</svg>
